Видео


Сообщение

Видео Аэробика для малышей (2005) DVDRip

Сообщение Нюша » 16 дек 2012, 18:27

Аэробика для малышей (2005) DVDRip

Русское название: Аэробика для малышей
Год выпуска: 2005
Жанр: Видеоуроки

Перевод: Одноголосый закадровый, любительский
Участники: мама с дочкой

Описание фильма:
Для развития ритма, координации, внимания, моторики у детей 2-4 лет.
Весёлые танцевальные движения и забавные упражнения подражательного характера удобны для домашних занятий
Упражнения направлены на развитие различных групп мышц малыша, улучшают рост и развитие органов и систем, развивают дыхательный аппарат.
Творчество, фантазия, являющиеся непременным условием, усиливают мозговые импульсы, которые в свою очередь стимулируют гипофиз, деятельность всей эндокринной системы.
Важнейший результат - это радость и эмоциональный подъём. Именно благодаря этому замечательному свойству аэробика способствуют всестороннему, гармоничному физическому и умственному развитию детей, воспитанию у них прикладных навыков, координации движений, ловкости, социальной адаптации, дисциплинированности и других важных качеств
Продолжительность: 00:54:20
Качество видео: DVDRip

Видеокодек: DivX 5
Битрейт видео: ~1667 kb/s
Размер кадра: 720х416
Аудиокодек: MP3 2 ch
Битрейт аудио: 120 kb/s
Формат: AVI
Формат/Информация: Audio Video Interleave
Размер файла: 700 Мбайт
Продолжительность: 54 м.
Режим общего битрейта: Переменный
Общий поток: 1801 Кбит/сек
Программа кодирования: VirtualDubMod 1.5.4.1 (build 2178/release)
Библиотека кодирования: VirtualDubMod build 2178/release

Видео
Идентификатор: 0
Формат: MPEG-4 Visual
Параметр BVOP формата: Нет
Параметр QPel формата: Нет
Параметр GMC формата: Без точки перехода
Параметр матрицы формата: Default (H.263)
Идентификатор кодека: DX50
Идентификатор кодека/Подсказка: DivX 5
Продолжительность: 54 м.
Битрейт: 1667 Кбит/сек
Ширина: 720 пикселей
Высота: 416 пикселей
Соотношение сторон: 1,731
Частота кадров: 25,000 кадров/сек
Цветовое пространство: YUV
Субдискретизация насыщенности: 4:2:0
Битовая глубина: 8 бит
Тип развёртки: Прогрессивная
Метод сжатия: С потерями
Бит/(Пиксели*Кадры): 0.223
Размер потока: 648 Мбайт (93%)
Библиотека кодирования: DivX 6.2.5 (UTC 2006-07)

Аудио
Идентификатор: 1
Формат: MPEG Audio
Версия формата: Version 1
Профиль формата: Layer 3
Режим: Joint stereo
Идентификатор кодека: 55
Идентификатор кодека/Подсказка: MP3
Продолжительность: 54 м.
Вид битрейта: Переменный
Битрейт: 120 Кбит/сек
Номинальный битрейт: 128 Кбит/сек
Каналы: 2 канала
Частота: 48,0 КГц
Метод сжатия: С потерями
Размер потока: 46,7 Мбайт (7%)
Выравнивание: Соединение по промежуткам
Продолжительность промежутка: 24мс. (0,60 видеокадр)
Время предзагрузки промежутка: 546мс.
Библиотека кодирования: LAME3.97b
Настройки программы: -m j -V 4 -q 2 -lowpass 17 --abr 128
Скриншоты:


Смотрите так же другие мои раздачи

Спасибо за спасибо!


Время раздачи: с 8:00 до 24:00 до первых 10-ти скачавших, далее по возможности

Постеры

Соцсети

 

Вернуться в Развитие и воспитание детей (0-5 лет)



Кто сейчас на конференции

Сейчас этот форум просматривают: CCBot и гости: 0