Видео

Сообщение

Видео Детский массаж и развивающая гимнастика от 6 мес. до 1 года (2006) 2 х DVDRip

Сообщение Нюша » 16 дек 2012, 18:25

Детский массаж и развивающая гимнастика от 6 мес. до 1 года (2006) DVDRip

Русское название: Детский массаж и развивающая гимнастика от 6 мес. до 1 года
Год выпуска: 2006
Жанр: Для родителей, Видеоуроки, Обучающий

Описание фильма:
Этот фильм расскажет Вам о приемах детского массажа и развивающей гимнастики для детей в возрасте от 6 до 12 месяцев. Пользуясь рекомендациями, Вы сможете делать массаж ребенку самостоятельно. Но прежде, чем нем приступить к занятиям, посоветуйтесь с педиатром на предмет наличия или отсутствия противопоказаний к проведению комплекса массажа и гимнастики. Занятия следует проводить курсами ежедневно или через день, выбирая время наиболее активного бодрствования ребенка, но не ранее чем через 30 минут после еды. Продолжительность занятий 30-35 минут. Температура в помещении должна быть около 22-23' С. Комнату перед этим необходимо проветрить. Ваши руки перед массажем должны быть чистыми, сухими и теплыми. Украшения с рук лучше снять. Массажный стол можно сделать из обеденного стола, постелив на него шерстяное одеяло или плед, клеенку и накрыв все это пеленкой. Массажное масло или крем иметь не обязательно. Занятия лучше проводить под музыкальное сопровождение.
Диск 1
1. Детский массаж для детей в возрасте 6-9 месяцев
2. Развивающая гимнастика для детей в возрасте 6-7 месяцев
3. Развивающая гимнастика для детей в возрасте 8-9 месяцев
Диск 2
1. Детский массаж для детей в возрасте 10-12 месяцев
2. Развивающая гимнастика для детей в возрасте 10-12 месяцев.


Продолжительность: 01:24:11 + 00:56:36
Качество видео: DVDRip

Видеокодек: Xvid
Битрейт видео: 1-й диск ~2017 kbps / 2-й диск ~1601 kbps
Размер кадра: 704 x 512
Аудио: 1-й диск АС3, 5.0, 448 kbps / 2-й диск АС3, 2.0, 224 kbps
Общее
Полное имя: D:\Downloads\Детский массаж и развивающая гимнастика\Детский массаж и развивающая гимнастика.2006.DVDRip 1.avi
Формат: AVI
Формат/Информация: Audio Video Interleave
Размер файла: 1,46 Гбайт
Продолжительность: 1 ч. 24 м.
Общий поток: 2476 Кбит/сек
Программа кодирования: VirtualDubModRus 1.5.10.2 (build 2542/release)
Библиотека кодирования: VirtualDubMod build 2542/release

Видео
Идентификатор: 0
Формат: MPEG-4 Visual
Профиль формата: Advanced Simple@L5
Параметр BVOP формата: 1
Параметр QPel формата: Нет
Параметр GMC формата: Без точки перехода
Параметр матрицы формата: Выборочная
Идентификатор кодека: XVID
Идентификатор кодека/Подсказка: XviD
Продолжительность: 1 ч. 24 м.
Битрейт: 2018 Кбит/сек
Ширина: 704 пикс.
Высота: 512 пикс.
Соотношение сторон: 1,375
Частота кадров: 25,000 кадр/сек
Цветовое пространство: YUV
Подвыборка цветности: 4:2:0
Битовая глубина: 8 бит
Тип развёртки: Прогрессивная
Метод сжатия: С потерями
Бит/(Пиксели*Кадры): 0.224
Размер потока: 1,19 Гбайт (82%)
Библиотека кодирования: XviD 64

Аудио
Идентификатор: 1
Формат: AC-3
Формат/Информация: Audio Coding 3
Расширение режима: CM (complete main)
Идентификатор кодека: 2000
Продолжительность: 1 ч. 24 м.
Вид битрейта: Постоянный
Битрейт: 448 Кбит/сек
Каналы: 6 каналов
Расположение каналов: Front: L C R, Side: L R, LFE
Частота: 48,0 КГц
Битовая глубина: 16 бит
Метод сжатия: С потерями
Размер потока: 270 Мбайт (18%)
Выравнивание: Разделение по промежуткам
Продолжительность промежутка: 40мс. (1,00 видеокадр)
Время предзагрузки промежутка: 500 ms
Общее
Полное имя: D:\Downloads\Детский массаж и развивающая гимнастика\Детский массаж и развивающая гимнастика.2006.DVDRip 2.avi
Формат: AVI
Формат/Информация: Audio Video Interleave
Размер файла: 743 Мбайт
Продолжительность: 56 м.
Общий поток: 1835 Кбит/сек
Программа кодирования: VirtualDubModRus 1.5.10.2 (build 2542/release)
Библиотека кодирования: VirtualDubMod build 2542/release

Видео
Идентификатор: 0
Формат: MPEG-4 Visual
Профиль формата: Advanced Simple@L5
Параметр BVOP формата: 1
Параметр QPel формата: Нет
Параметр GMC формата: Без точки перехода
Параметр матрицы формата: Выборочная
Идентификатор кодека: XVID
Идентификатор кодека/Подсказка: XviD
Продолжительность: 56 м.
Битрейт: 1601 Кбит/сек
Ширина: 704 пикс.
Высота: 512 пикс.
Соотношение сторон: 1,375
Частота кадров: 25,000 кадр/сек
Цветовое пространство: YUV
Подвыборка цветности: 4:2:0
Битовая глубина: 8 бит
Тип развёртки: Прогрессивная
Метод сжатия: С потерями
Бит/(Пиксели*Кадры): 0.178
Размер потока: 648 Мбайт (87%)
Библиотека кодирования: XviD 64

Аудио
Идентификатор: 1
Формат: AC-3
Формат/Информация: Audio Coding 3
Расширение режима: CM (complete main)
Идентификатор кодека: 2000
Продолжительность: 56 м.
Вид битрейта: Постоянный
Битрейт: 224 Кбит/сек
Каналы: 2 канала
Расположение каналов: Front: L R
Частота: 48,0 КГц
Битовая глубина: 16 бит
Метод сжатия: С потерями
Размер потока: 90,7 Мбайт (12%)
Выравнивание: Разделение по промежуткам
Продолжительность промежутка: 40мс. (1,00 видеокадр)
Время предзагрузки промежутка: 500 ms
1-й диск



2-й диск

Время раздачи: с 23:00 до 07:00, днем по мере возможности
Приятного просмотра!

Постеры

Соцсети

 

Вернуться в Развитие и воспитание детей (0-5 лет)



Кто сейчас на конференции

Сейчас этот форум просматривают: CCBot и гости: 0