Видео


Сообщение

Видео Для вас родители: Еще раз о смехе. (1981) SATRip

Сообщение Нюша » 16 дек 2012, 18:20

Для вас родители: Еще раз о смехе. (1981) SATRip

Русское название: Для вас родители: Еще раз о смехе.
Год выпуска: 1981
Жанр: Для родителей, Юмор
Участники: Евгений Леонов

Описание фильма:
Передача "Для вас, родители: еще раз о смехе".
Евгений Леонов рассказывает о том, как шутка, смех, хорошее настроение родителей помогают воспитанию детей.

Продолжительность: 00:29:28



Качество видео: SATRip

Видеокодек: DivX 5
Битрейт видео: ~1920 Кбит/сек
Размер кадра: 672x512
Аудиокодек: MP3 2.0
Битрейт аудио: 128 Кбит/сек
Общее
Полное имя: D:\Downloads\Dlja_vas_roditeli.Leonov.1981.avi
Формат: AVI
Формат/Информация: Audio Video Interleave
Размер файла: 434 Мбайт
Продолжительность: 29 м.
Общий поток: 2058 Кбит/сек
Библиотека кодирования: VirtualDub build 15654/release

Видео
Идентификатор: 0
Формат: MPEG-4 Visual
Параметр BVOP формата: 1
Параметр QPel формата: Нет
Параметр GMC формата: Без точки перехода
Параметр матрицы формата: Default (H.263)
Режим смешивания: Сжатый битовый поток
Идентификатор кодека: DX50
Идентификатор кодека/Подсказка: DivX 5
Продолжительность: 29 м.
Битрейт: 1920 Кбит/сек
Ширина: 672 пикс.
Высота: 512 пикс.
Соотношение сторон: 4:3
Частота кадров: 25,000 кадр/сек
Цветовое пространство: YUV
Подвыборка цветности: 4:2:0
Битовая глубина: 8 бит
Тип развёртки: Прогрессивная
Метод сжатия: С потерями
Бит/(Пиксели*Кадры): 0.223
Размер потока: 405 Мбайт (93%)
Библиотека кодирования: DivX 6.1.1 (UTC 2006-02-01)

Аудио
Идентификатор: 1
Формат: MPEG Audio
Версия формата: Version 1
Профиль формата: Layer 3
Режим: Dual mono
Идентификатор кодека: 55
Идентификатор кодека/Подсказка: MP3
Продолжительность: 29 м.
Вид битрейта: Постоянный
Битрейт: 128 Кбит/сек
Каналы: 2 канала
Частота: 44,1 КГц
Метод сжатия: С потерями
Задержка видео: 9 мс.
Размер потока: 27,0 Мбайт (6%)
Выравнивание: Разделение по промежуткам
Продолжительность промежутка: 40мс. (1,00 видеокадр)
Время предзагрузки промежутка: 500 ms




Время раздачи: с 23:00 до 07:00, днем по мере возможности
Приятного просмотра!

Постеры

Соцсети

 

Вернуться в Развитие и воспитание детей (0-5 лет)



Кто сейчас на конференции

Сейчас этот форум просматривают: CCBot и гости: 0