Видео

Сообщение

Видео Двигательное развитие детей раннего возраста (в частности детей с синдромом Дауна) (2008) DVDRip

Сообщение Нюша » 16 дек 2012, 18:27

Двигательное развитие детей раннего возраста (в частности детей с синдромом Дауна) (2008) DVDRip

Русское название: Двигательное развитие детей раннего возраста (в частности детей с синдромом Дауна)
Год выпуска: 2008
Производство: Украина
Жанр: Обучающий, для родителей

Описание фильма:
В 2008г. в Киеве голландские специалисты провели 2-х дневный семинар для родителей воспитывающих детей с синдромом Дауна. Данный материал содержит почти десятичасовую видео лекцию для родителей, у детей которых возникли проблемы с развитием двигательных рефлексов (хождения, сидения, стояния, хватания и т.д.) Видео поделено на 5 частей.
Метод опробован десятилетним испытанием и действенен на 84%.

Продолжительность: 09:19:22
Качество видео: DVDRip

Видеокодек: mp43 codec
Битрейт видео: ~415 kb/s
Размер кадра: 320x240
Аудиокодек: MP3 2 ch
Битрейт аудио: 64 kb/s
Формат: AVI
Формат/Информация: Audio Video Interleave
Размер файла: 463 Мбайт
Продолжительность: 2 ч. 11 м.
Общий поток: 492 Кбит/сек
Программа кодирования: Lavf52.0.0

Видео
Идентификатор: 0
Формат: MPEG-4 Visual
Идентификатор кодека: MP43
Идентификатор кодека/Информация: Microsoft MPEG-4 v3 (pre-standard)
Идентификатор кодека/Подсказка: Microsoft
Продолжительность: 2 ч. 11 м.
Битрейт: 415 Кбит/сек
Ширина: 320 пикселей
Высота: 240 пикселей
Соотношение сторон: 4:3
Частота кадров: 25,000 кадров/сек
Метод сжатия: С потерями
Бит/(Пиксели*Кадры): 0.216
Размер потока: 391 Мбайт (84%)

Аудио
Идентификатор: 1
Формат: MPEG Audio
Версия формата: Version 1
Профиль формата: Layer 3
Режим: Joint stereo
Расширение режима: MS Stereo
Идентификатор кодека: 55
Идентификатор кодека/Подсказка: MP3
Продолжительность: 2 ч. 11 м.
Вид битрейта: Постоянный
Битрейт: 64,0 Кбит/сек
Каналы: 2 канала
Частота: 48,0 КГц
Метод сжатия: С потерями
Размер потока: 60,3 Мбайт (13%)
Выравнивание: Соединение по промежуткам
Продолжительность промежутка: 24мс. (0,60 видеокадр)
Скриншоты:


Время раздачи: с 8:00 до 24:00 до первых 10-ти скачавших, далее по возможности

Постеры

Соцсети

 

Вернуться в Развитие и воспитание детей (0-5 лет)



Кто сейчас на конференции

Сейчас этот форум просматривают: YandexBot и гости: 1