Видео


Сообщение

Видео Huggies. Пособие для молодых родителей, или Все получится. (2010) DVDRip

Сообщение Нюша » 16 дек 2012, 18:29

Huggies. Пособие для молодых родителей, или Все получится. (2010) DVDRip

Русское название: Huggies. Пособие для молодых родителей, или Все получится.
Год выпуска: 2010
Жанр: Для родителей, Видеоруководство

Описание фильма:
Беременность, подготовка к родам,уход за новорожденным малышом, возвращение прежней формы - сейчас у вас столько вопросов! А как многому необходимо научиться!
Мы решили помочь молодым родителям в это волнительное время, собрав коллекцию советов и решений, основанных на консультациях специалистов разных сфер деятельности.
Мы знаем, что вы чувствуете и как стараетесь не оступиться.
Мы знаем, как вы хотите защитить малыша от всего мира.
Но главное - мы знаем, что у вас все получится!
Эпизоды:
1. Вступление. 00:01:44
2. Последний триместр беременности. 00:02:28
3. Гимнастика беременных. 00:04:06
4. Ложные схватки. 00:02:06
5. Что нужно взять с собой в роддом. 00:02:57
6. Роды. Дыхание и поведение. 00:05:39
7. Обработка пупочной ранки. 00:01:28
8. Кормление. 00:06:19
9. Отказ ребенка от груди. Диета для кормящей мамы. 00:03:34
10.Смена подгузника. 00:02:24
11.Гигиена. 00:03:42
12.Массаж. 00:03:29
13.Гимнастика для малыша. 00:03:27
14.Купание. 00:03:20
15.Пеленание.00:01:56
16.Сон. 00:04:04
17.Пользование слингом. 00:02:10
18.Послеродовая депрессия. 00:01:53
19.Возвращаемся в прежнюю форму. 00:02:55

Качество видео: DVDRip

Видеокодек: Xvid
Битрейт видео: ~1500 Кбит/сек
Размер кадра: 1024 х 576
Аудиокодек: MP3, 2 ch
Битрейт аудио: 192 Кбит/сек
Общее
Полное имя: D:\Downloads\Пособие для молодых родителей\01 Huggies Вступление.avi
Формат: AVI
Формат/Информация: Audio Video Interleave
Размер файла: 21,3 Мбайт
Продолжительность: 1 м. 44 с.
Общий поток: 1708 Кбит/сек
Программа кодирования: Lavf52.94.0

Видео
Идентификатор: 0
Формат: xvid
Идентификатор кодека: xvid
Продолжительность: 1 м. 44 с.
Битрейт: 1503 Кбит/сек
Ширина: 1024 пикс.
Высота: 576 пикс.
Соотношение сторон: 16:9
Частота кадров: 25,000 кадр/сек
Бит/(Пиксели*Кадры): 0.102
Размер потока: 18,8 Мбайт (88%)

Аудио
Идентификатор: 1
Формат: MPEG Audio
Версия формата: Version 1
Профиль формата: Layer 3
Режим: Joint stereo
Расширение режима: MS Stereo
Идентификатор кодека: 55
Идентификатор кодека/Подсказка: MP3
Продолжительность: 1 м. 44 с.
Вид битрейта: Постоянный
Битрейт: 192 Кбит/сек
Каналы: 2 канала
Частота: 48,0 КГц
Метод сжатия: С потерями
Размер потока: 2,40 Мбайт (11%)
Выравнивание: Соединение по промежуткам
Продолжительность промежутка: 24мс. (0,60 видеокадр)
Библиотека кодирования: LAME3.98.4

Общее
Полное имя: D:\Downloads\Пособие для молодых родителей\02 Huggies Последний триместр беременности.avi
Формат: AVI
Формат/Информация: Audio Video Interleave
Размер файла: 30,2 Мбайт
Продолжительность: 2 м. 28 с.
Общий поток: 1706 Кбит/сек
Программа кодирования: Lavf52.94.0

Видео
Идентификатор: 0
Формат: xvid
Идентификатор кодека: xvid
Продолжительность: 2 м. 28 с.
Битрейт: 1500 Кбит/сек
Ширина: 1024 пикс.
Высота: 576 пикс.
Соотношение сторон: 16:9
Частота кадров: 25,000 кадр/сек
Бит/(Пиксели*Кадры): 0.102
Размер потока: 26,6 Мбайт (88%)

Аудио
Идентификатор: 1
Формат: MPEG Audio
Версия формата: Version 1
Профиль формата: Layer 3
Режим: Joint stereo
Расширение режима: MS Stereo
Идентификатор кодека: 55
Идентификатор кодека/Подсказка: MP3
Продолжительность: 2 м. 28 с.
Вид битрейта: Постоянный
Битрейт: 192 Кбит/сек
Каналы: 2 канала
Частота: 48,0 КГц
Метод сжатия: С потерями
Размер потока: 3,40 Мбайт (11%)
Выравнивание: Соединение по промежуткам
Продолжительность промежутка: 24мс. (0,60 видеокадр)

Общее
Полное имя: D:\Downloads\Пособие для молодых родителей\03 Huggies Гимнастика беременных.avi
Формат: AVI
Формат/Информация: Audio Video Interleave
Размер файла: 50,1 Мбайт
Продолжительность: 4 м. 6 с.
Общий поток: 1706 Кбит/сек
Программа кодирования: Lavf52.94.0

Видео
Идентификатор: 0
Формат: xvid
Идентификатор кодека: xvid
Продолжительность: 4 м. 6 с.
Битрейт: 1501 Кбит/сек
Ширина: 1024 пикс.
Высота: 576 пикс.
Соотношение сторон: 16:9
Частота кадров: 25,000 кадр/сек
Бит/(Пиксели*Кадры): 0.102
Размер потока: 44,0 Мбайт (88%)

Аудио
Идентификатор: 1
Формат: MPEG Audio
Версия формата: Version 1
Профиль формата: Layer 3
Режим: Joint stereo
Расширение режима: MS Stereo
Идентификатор кодека: 55
Идентификатор кодека/Подсказка: MP3
Продолжительность: 4 м. 6 с.
Вид битрейта: Постоянный
Битрейт: 192 Кбит/сек
Каналы: 2 канала
Частота: 48,0 КГц
Метод сжатия: С потерями
Размер потока: 5,63 Мбайт (11%)
Выравнивание: Соединение по промежуткам
Продолжительность промежутка: 24мс. (0,60 видеокадр)
Библиотека кодирования: LAME3.98.4

Общее
Полное имя: D:\Downloads\Пособие для молодых родителей\04 Huggies Ложные схватки.avi
Формат: AVI
Формат/Информация: Audio Video Interleave
Размер файла: 25,7 Мбайт
Продолжительность: 2 м. 6 с.
Общий поток: 1707 Кбит/сек
Программа кодирования: Lavf52.94.0

Видео
Идентификатор: 0
Формат: xvid
Идентификатор кодека: xvid
Продолжительность: 2 м. 6 с.
Битрейт: 1501 Кбит/сек
Ширина: 1024 пикс.
Высота: 576 пикс.
Соотношение сторон: 16:9
Частота кадров: 25,000 кадр/сек
Бит/(Пиксели*Кадры): 0.102
Размер потока: 22,6 Мбайт (88%)

Аудио
Идентификатор: 1
Формат: MPEG Audio
Версия формата: Version 1
Профиль формата: Layer 3
Режим: Joint stereo
Расширение режима: MS Stereo
Идентификатор кодека: 55
Идентификатор кодека/Подсказка: MP3
Продолжительность: 2 м. 6 с.
Вид битрейта: Постоянный
Битрейт: 192 Кбит/сек
Каналы: 2 канала
Частота: 48,0 КГц
Метод сжатия: С потерями
Размер потока: 2,89 Мбайт (11%)
Выравнивание: Соединение по промежуткам
Продолжительность промежутка: 24мс. (0,60 видеокадр)
Библиотека кодирования: LAME3.98.4ЄЄЄЄ!H‘

Общее
Полное имя: D:\Downloads\Пособие для молодых родителей\05 Huggies Что нужно взять с собой в роддом.avi
Формат: AVI
Формат/Информация: Audio Video Interleave
Размер файла: 31,5 Мбайт
Продолжительность: 2 м. 57 с.
Общий поток: 1492 Кбит/сек
Программа кодирования: Lavf52.94.0

Видео
Идентификатор: 0
Формат: xvid
Идентификатор кодека: xvid
Продолжительность: 2 м. 57 с.
Битрейт: 1287 Кбит/сек
Ширина: 1024 пикс.
Высота: 576 пикс.
Соотношение сторон: 16:9
Частота кадров: 25,000 кадр/сек
Бит/(Пиксели*Кадры): 0.087
Размер потока: 27,2 Мбайт (86%)

Аудио
Идентификатор: 1
Формат: MPEG Audio
Версия формата: Version 1
Профиль формата: Layer 3
Режим: Joint stereo
Расширение режима: MS Stereo
Идентификатор кодека: 55
Идентификатор кодека/Подсказка: MP3
Продолжительность: 2 м. 57 с.
Вид битрейта: Постоянный
Битрейт: 192 Кбит/сек
Каналы: 2 канала
Частота: 48,0 КГц
Метод сжатия: С потерями
Размер потока: 4,06 Мбайт (13%)
Выравнивание: Соединение по промежуткам
Продолжительность промежутка: 24мс. (0,60 видеокадр)
Библиотека кодирования: LAME3.98.4ЄЄЄЄЄЄЄЄЄЄ

Общее
Полное имя: D:\Downloads\Пособие для молодых родителей\06 Huggies Роды. Дыхание и поведение.avi
Формат: AVI
Формат/Информация: Audio Video Interleave
Размер файла: 69,1 Мбайт
Продолжительность: 5 м. 39 с.
Общий поток: 1706 Кбит/сек
Программа кодирования: Lavf52.94.0

Видео
Идентификатор: 0
Формат: xvid
Идентификатор кодека: xvid
Продолжительность: 5 м. 39 с.
Битрейт: 1501 Кбит/сек
Ширина: 1024 пикс.
Высота: 576 пикс.
Соотношение сторон: 16:9
Частота кадров: 25,000 кадр/сек
Бит/(Пиксели*Кадры): 0.102
Размер потока: 60,8 Мбайт (88%)

Аудио
Идентификатор: 1
Формат: MPEG Audio
Версия формата: Version 1
Профиль формата: Layer 3
Режим: Joint stereo
Расширение режима: MS Stereo
Идентификатор кодека: 55
Идентификатор кодека/Подсказка: MP3
Продолжительность: 5 м. 39 с.
Вид битрейта: Постоянный
Битрейт: 192 Кбит/сек
Каналы: 2 канала
Частота: 48,0 КГц
Метод сжатия: С потерями
Размер потока: 7,78 Мбайт (11%)
Выравнивание: Соединение по промежуткам
Продолжительность промежутка: 24мс. (0,60 видеокадр)
Библиотека кодирования: LAMEЄЄЄЄ­Жгd‚¶Рn€sm

Общее
Полное имя: D:\Downloads\Пособие для молодых родителей\07 Huggies Обработка пупочной ранки.avi
Формат: AVI
Формат/Информация: Audio Video Interleave
Размер файла: 17,9 Мбайт
Продолжительность: 1 м. 28 с.
Общий поток: 1698 Кбит/сек
Программа кодирования: Lavf52.94.0

Видео
Идентификатор: 0
Формат: xvid
Идентификатор кодека: xvid
Продолжительность: 1 м. 28 с.
Битрейт: 1492 Кбит/сек
Ширина: 1024 пикс.
Высота: 576 пикс.
Соотношение сторон: 16:9
Частота кадров: 25,000 кадр/сек
Бит/(Пиксели*Кадры): 0.101
Размер потока: 15,7 Мбайт (88%)

Аудио
Идентификатор: 1
Формат: MPEG Audio
Версия формата: Version 1
Профиль формата: Layer 3
Режим: Joint stereo
Расширение режима: MS Stereo
Идентификатор кодека: 55
Идентификатор кодека/Подсказка: MP3
Продолжительность: 1 м. 28 с.
Вид битрейта: Постоянный
Битрейт: 192 Кбит/сек
Каналы: 2 канала
Частота: 48,0 КГц
Метод сжатия: С потерями
Размер потока: 2,02 Мбайт (11%)
Выравнивание: Соединение по промежуткам
Продолжительность промежутка: 24мс. (0,60 видеокадр)

Общее
Полное имя: D:\Downloads\Пособие для молодых родителей\08 Huggies Кормление.avi
Формат: AVI
Формат/Информация: Audio Video Interleave
Размер файла: 77,1 Мбайт
Продолжительность: 6 м. 19 с.
Общий поток: 1704 Кбит/сек
Программа кодирования: Lavf52.94.0

Видео
Идентификатор: 0
Формат: xvid
Идентификатор кодека: xvid
Продолжительность: 6 м. 19 с.
Битрейт: 1499 Кбит/сек
Ширина: 1024 пикс.
Высота: 576 пикс.
Соотношение сторон: 16:9
Частота кадров: 25,000 кадр/сек
Бит/(Пиксели*Кадры): 0.102
Размер потока: 67,8 Мбайт (88%)

Аудио
Идентификатор: 1
Формат: MPEG Audio
Версия формата: Version 1
Профиль формата: Layer 3
Режим: Joint stereo
Расширение режима: MS Stereo
Идентификатор кодека: 55
Идентификатор кодека/Подсказка: MP3
Продолжительность: 6 м. 19 с.
Вид битрейта: Постоянный
Битрейт: 192 Кбит/сек
Каналы: 2 канала
Частота: 48,0 КГц
Метод сжатия: С потерями
Размер потока: 8,69 Мбайт (11%)
Выравнивание: Соединение по промежуткам
Продолжительность промежутка: 24мс. (0,60 видеокадр)
Библиотека кодирования: LAME3.98.4

Общее
Полное имя: D:\Downloads\Пособие для молодых родителей\09 Huggies Отказ ребенка от груди. Диета для кормящей мамы.avi
Формат: AVI
Формат/Информация: Audio Video Interleave
Размер файла: 43,5 Мбайт
Продолжительность: 3 м. 34 с.
Общий поток: 1705 Кбит/сек
Программа кодирования: Lavf52.94.0

Видео
Идентификатор: 0
Формат: xvid
Идентификатор кодека: xvid
Продолжительность: 3 м. 34 с.
Битрейт: 1500 Кбит/сек
Ширина: 1024 пикс.
Высота: 576 пикс.
Соотношение сторон: 16:9
Частота кадров: 25,000 кадр/сек
Бит/(Пиксели*Кадры): 0.102
Размер потока: 38,3 Мбайт (88%)

Аудио
Идентификатор: 1
Формат: MPEG Audio
Версия формата: Version 1
Профиль формата: Layer 3
Режим: Joint stereo
Расширение режима: MS Stereo
Идентификатор кодека: 55
Идентификатор кодека/Подсказка: MP3
Продолжительность: 3 м. 34 с.
Вид битрейта: Постоянный
Битрейт: 192 Кбит/сек
Каналы: 2 канала
Частота: 48,0 КГц
Метод сжатия: С потерями
Размер потока: 4,90 Мбайт (11%)
Выравнивание: Соединение по промежуткам
Продолжительность промежутка: 24мс. (0,60 видеокадр)
Библиотека кодирования: LAME3.98.4

Общее
Полное имя: D:\Downloads\Пособие для молодых родителей\10 Huggies Смена подгузника.avi
Формат: AVI
Формат/Информация: Audio Video Interleave
Размер файла: 29,4 Мбайт
Продолжительность: 2 м. 24 с.
Общий поток: 1703 Кбит/сек
Программа кодирования: Lavf52.94.0

Видео
Идентификатор: 0
Формат: xvid
Идентификатор кодека: xvid
Продолжительность: 2 м. 24 с.
Битрейт: 1498 Кбит/сек
Ширина: 1024 пикс.
Высота: 576 пикс.
Соотношение сторон: 16:9
Частота кадров: 25,000 кадр/сек
Бит/(Пиксели*Кадры): 0.102
Размер потока: 25,9 Мбайт (88%)

Аудио
Идентификатор: 1
Формат: MPEG Audio
Версия формата: Version 1
Профиль формата: Layer 3
Режим: Joint stereo
Идентификатор кодека: 55
Идентификатор кодека/Подсказка: MP3
Продолжительность: 2 м. 24 с.
Вид битрейта: Постоянный
Битрейт: 192 Кбит/сек
Каналы: 2 канала
Частота: 48,0 КГц
Метод сжатия: С потерями
Размер потока: 3,32 Мбайт (11%)
Выравнивание: Соединение по промежуткам
Продолжительность промежутка: 24мс. (0,60 видеокадр)
Библиотека кодирования: LAME3.98.4

Общее
Полное имя: D:\Downloads\Пособие для молодых родителей\11 Huggies Гигиена.avi
Формат: AVI
Формат/Информация: Audio Video Interleave
Размер файла: 45,2 Мбайт
Продолжительность: 3 м. 42 с.
Общий поток: 1705 Кбит/сек
Программа кодирования: Lavf52.94.0

Видео
Идентификатор: 0
Формат: xvid
Идентификатор кодека: xvid
Продолжительность: 3 м. 42 с.
Битрейт: 1500 Кбит/сек
Ширина: 1024 пикс.
Высота: 576 пикс.
Соотношение сторон: 16:9
Частота кадров: 25,000 кадр/сек
Бит/(Пиксели*Кадры): 0.102
Размер потока: 39,8 Мбайт (88%)

Аудио
Идентификатор: 1
Формат: MPEG Audio
Версия формата: Version 1
Профиль формата: Layer 3
Режим: Joint stereo
Расширение режима: MS Stereo
Идентификатор кодека: 55
Идентификатор кодека/Подсказка: MP3
Продолжительность: 3 м. 42 с.
Вид битрейта: Постоянный
Битрейт: 192 Кбит/сек
Каналы: 2 канала
Частота: 48,0 КГц
Метод сжатия: С потерями
Размер потока: 5,08 Мбайт (11%)
Выравнивание: Соединение по промежуткам
Продолжительность промежутка: 24мс. (0,60 видеокадр)
Библиотека кодирования: LAME3.98.4ЄЄЄЄЄЄЄЄЄЄ

Общее
Полное имя: D:\Downloads\Пособие для молодых родителей\12 Huggies Массаж.avi
Формат: AVI
Формат/Информация: Audio Video Interleave
Размер файла: 42,5 Мбайт
Продолжительность: 3 м. 29 с.
Общий поток: 1706 Кбит/сек
Программа кодирования: Lavf52.94.0

Видео
Идентификатор: 0
Формат: xvid
Идентификатор кодека: xvid
Продолжительность: 3 м. 29 с.
Битрейт: 1501 Кбит/сек
Ширина: 1024 пикс.
Высота: 576 пикс.
Соотношение сторон: 16:9
Частота кадров: 25,000 кадр/сек
Бит/(Пиксели*Кадры): 0.102
Размер потока: 37,4 Мбайт (88%)

Аудио
Идентификатор: 1
Формат: MPEG Audio
Версия формата: Version 1
Профиль формата: Layer 3
Режим: Joint stereo
Идентификатор кодека: 55
Идентификатор кодека/Подсказка: MP3
Продолжительность: 3 м. 29 с.
Вид битрейта: Постоянный
Битрейт: 192 Кбит/сек
Каналы: 2 канала
Частота: 48,0 КГц
Метод сжатия: С потерями
Размер потока: 4,79 Мбайт (11%)
Выравнивание: Соединение по промежуткам
Продолжительность промежутка: 24мс. (0,60 видеокадр)
Библиотека кодирования: LAME3.98@

Общее
Полное имя: D:\Downloads\Пособие для молодых родителей\13 Huggies Гимнастика для малыша.avi
Формат: AVI
Формат/Информация: Audio Video Interleave
Размер файла: 42,1 Мбайт
Продолжительность: 3 м. 27 с.
Общий поток: 1701 Кбит/сек
Программа кодирования: Lavf52.94.0

Видео
Идентификатор: 0
Формат: xvid
Идентификатор кодека: xvid
Продолжительность: 3 м. 27 с.
Битрейт: 1496 Кбит/сек
Ширина: 1024 пикс.
Высота: 576 пикс.
Соотношение сторон: 16:9
Частота кадров: 25,000 кадр/сек
Бит/(Пиксели*Кадры): 0.101
Размер потока: 37,0 Мбайт (88%)

Аудио
Идентификатор: 1
Формат: MPEG Audio
Версия формата: Version 1
Профиль формата: Layer 3
Режим: Joint stereo
Расширение режима: MS Stereo
Идентификатор кодека: 55
Идентификатор кодека/Подсказка: MP3
Продолжительность: 3 м. 27 с.
Вид битрейта: Постоянный
Битрейт: 192 Кбит/сек
Каналы: 2 канала
Частота: 48,0 КГц
Метод сжатия: С потерями
Размер потока: 4,75 Мбайт (11%)
Выравнивание: Соединение по промежуткам
Продолжительность промежутка: 24мс. (0,60 видеокадр)
Библиотека кодирования: LAME3.98.4UUUдзюа

Общее
Полное имя: D:\Downloads\Пособие для молодых родителей\14 Huggies Купание.avi
Формат: AVI
Формат/Информация: Audio Video Interleave
Размер файла: 40,7 Мбайт
Продолжительность: 3 м. 20 с.
Общий поток: 1702 Кбит/сек
Программа кодирования: Lavf52.94.0

Видео
Идентификатор: 0
Формат: xvid
Идентификатор кодека: xvid
Продолжительность: 3 м. 20 с.
Битрейт: 1497 Кбит/сек
Ширина: 1024 пикс.
Высота: 576 пикс.
Соотношение сторон: 16:9
Частота кадров: 25,000 кадр/сек
Бит/(Пиксели*Кадры): 0.102
Размер потока: 35,8 Мбайт (88%)

Аудио
Идентификатор: 1
Формат: MPEG Audio
Версия формата: Version 1
Профиль формата: Layer 3
Режим: Joint stereo
Расширение режима: MS Stereo
Идентификатор кодека: 55
Идентификатор кодека/Подсказка: MP3
Продолжительность: 3 м. 20 с.
Вид битрейта: Постоянный
Битрейт: 192 Кбит/сек
Каналы: 2 канала
Частота: 48,0 КГц
Метод сжатия: С потерями
Размер потока: 4,59 Мбайт (11%)
Выравнивание: Соединение по промежуткам
Продолжительность промежутка: 24мс. (0,60 видеокадр)

Общее
Полное имя: D:\Downloads\Пособие для молодых родителей\15 Huggies Пеленание.avi
Формат: AVI
Формат/Информация: Audio Video Interleave
Размер файла: 23,6 Мбайт
Продолжительность: 1 м. 56 с.
Общий поток: 1702 Кбит/сек
Программа кодирования: Lavf52.94.0

Видео
Идентификатор: 0
Формат: xvid
Идентификатор кодека: xvid
Продолжительность: 1 м. 56 с.
Битрейт: 1497 Кбит/сек
Ширина: 1024 пикс.
Высота: 576 пикс.
Соотношение сторон: 16:9
Частота кадров: 25,000 кадр/сек
Бит/(Пиксели*Кадры): 0.102
Размер потока: 20,8 Мбайт (88%)

Аудио
Идентификатор: 1
Формат: MPEG Audio
Версия формата: Version 1
Профиль формата: Layer 3
Режим: Joint stereo
Расширение режима: MS Stereo
Идентификатор кодека: 55
Идентификатор кодека/Подсказка: MP3
Продолжительность: 1 м. 56 с.
Вид битрейта: Постоянный
Битрейт: 192 Кбит/сек
Каналы: 2 канала
Частота: 48,0 КГц
Метод сжатия: С потерями
Размер потока: 2,66 Мбайт (11%)
Выравнивание: Соединение по промежуткам
Продолжительность промежутка: 24мс. (0,60 видеокадр)
Библиотека кодирования: LAME3.98.4ЄЄЄЄЄЄЄЄЄЄ

Общее
Полное имя: D:\Downloads\Пособие для молодых родителей\16 Huggies Сон.avi
Формат: AVI
Формат/Информация: Audio Video Interleave
Размер файла: 49,7 Мбайт
Продолжительность: 4 м. 4 с.
Общий поток: 1704 Кбит/сек
Программа кодирования: Lavf52.94.0

Видео
Идентификатор: 0
Формат: xvid
Идентификатор кодека: xvid
Продолжительность: 4 м. 4 с.
Битрейт: 1499 Кбит/сек
Ширина: 1024 пикс.
Высота: 576 пикс.
Соотношение сторон: 16:9
Частота кадров: 25,000 кадр/сек
Бит/(Пиксели*Кадры): 0.102
Размер потока: 43,7 Мбайт (88%)

Аудио
Идентификатор: 1
Формат: MPEG Audio
Версия формата: Version 1
Профиль формата: Layer 3
Режим: Joint stereo
Расширение режима: MS Stereo
Идентификатор кодека: 55
Идентификатор кодека/Подсказка: MP3
Продолжительность: 4 м. 4 с.
Вид битрейта: Постоянный
Битрейт: 192 Кбит/сек
Каналы: 2 канала
Частота: 48,0 КГц
Метод сжатия: С потерями
Размер потока: 5,60 Мбайт (11%)
Выравнивание: Соединение по промежуткам
Продолжительность промежутка: 24мс. (0,60 видеокадр)
Библиотека кодирования: LAMEф0tQУL0„c

Общее
Полное имя: D:\Downloads\Пособие для молодых родителей\17 Huggies Пользование слингом.avi
Формат: AVI
Формат/Информация: Audio Video Interleave
Размер файла: 26,4 Мбайт
Продолжительность: 2 м. 10 с.
Общий поток: 1700 Кбит/сек
Программа кодирования: Lavf52.94.0

Видео
Идентификатор: 0
Формат: xvid
Идентификатор кодека: xvid
Продолжительность: 2 м. 10 с.
Битрейт: 1495 Кбит/сек
Ширина: 1024 пикс.
Высота: 576 пикс.
Соотношение сторон: 16:9
Частота кадров: 25,000 кадр/сек
Бит/(Пиксели*Кадры): 0.101
Размер потока: 23,2 Мбайт (88%)

Аудио
Идентификатор: 1
Формат: MPEG Audio
Версия формата: Version 1
Профиль формата: Layer 3
Режим: Joint stereo
Расширение режима: MS Stereo
Идентификатор кодека: 55
Идентификатор кодека/Подсказка: MP3
Продолжительность: 2 м. 10 с.
Вид битрейта: Постоянный
Битрейт: 192 Кбит/сек
Каналы: 2 канала
Частота: 48,0 КГц
Метод сжатия: С потерями
Размер потока: 2,98 Мбайт (11%)
Выравнивание: Соединение по промежуткам
Продолжительность промежутка: 24мс. (0,60 видеокадр)
Библиотека кодирования: LAME3.98.4

Общее
Полное имя: D:\Downloads\Пособие для молодых родителей\18 Huggies Послеродовая депрессия.avi
Формат: AVI
Формат/Информация: Audio Video Interleave
Размер файла: 23,2 Мбайт
Продолжительность: 1 м. 53 с.
Общий поток: 1706 Кбит/сек
Программа кодирования: Lavf52.94.0

Видео
Идентификатор: 0
Формат: xvid
Идентификатор кодека: xvid
Продолжительность: 1 м. 53 с.
Битрейт: 1501 Кбит/сек
Ширина: 1024 пикс.
Высота: 576 пикс.
Соотношение сторон: 16:9
Частота кадров: 25,000 кадр/сек
Бит/(Пиксели*Кадры): 0.102
Размер потока: 20,4 Мбайт (88%)

Аудио
Идентификатор: 1
Формат: MPEG Audio
Версия формата: Version 1
Профиль формата: Layer 3
Режим: Joint stereo
Расширение режима: MS Stereo
Идентификатор кодека: 55
Идентификатор кодека/Подсказка: MP3
Продолжительность: 1 м. 53 с.
Вид битрейта: Постоянный
Битрейт: 192 Кбит/сек
Каналы: 2 канала
Частота: 48,0 КГц
Метод сжатия: С потерями
Размер потока: 2,61 Мбайт (11%)
Выравнивание: Соединение по промежуткам
Продолжительность промежутка: 24мс. (0,60 видеокадр)
Библиотека кодирования: LAMEЄддьЎЉ)»„`‘…

Общее
Полное имя: D:\Downloads\Пособие для молодых родителей\19 Huggies Возвращаемся в прежнюю форму.avi
Формат: AVI
Формат/Информация: Audio Video Interleave
Размер файла: 35,8 Мбайт
Продолжительность: 2 м. 55 с.
Общий поток: 1714 Кбит/сек
Программа кодирования: Lavf52.94.0

Видео
Идентификатор: 0
Формат: xvid
Идентификатор кодека: xvid
Продолжительность: 2 м. 55 с.
Битрейт: 1509 Кбит/сек
Ширина: 1024 пикс.
Высота: 576 пикс.
Соотношение сторон: 16:9
Частота кадров: 25,000 кадр/сек
Бит/(Пиксели*Кадры): 0.102
Размер потока: 31,6 Мбайт (88%)

Аудио
Идентификатор: 1
Формат: MPEG Audio
Версия формата: Version 1
Профиль формата: Layer 3
Режим: Joint stereo
Расширение режима: MS Stereo
Идентификатор кодека: 55
Идентификатор кодека/Подсказка: MP3
Продолжительность: 2 м. 55 с.
Вид битрейта: Постоянный
Битрейт: 192 Кбит/сек
Каналы: 2 канала
Частота: 48,0 КГц
Метод сжатия: С потерями
Размер потока: 4,01 Мбайт (11%)
Выравнивание: Соединение по промежуткам
Продолжительность промежутка: 24мс. (0,60 видеокадр)



Время раздачи: с 23:00 до 07:00, днем по мере возможности
Приятного просмотра!

Постеры

Соцсети

 

Вернуться в Развитие и воспитание детей (0-5 лет)



Кто сейчас на конференции

Сейчас этот форум просматривают: CCBot и гости: 0