Видео


Сообщение

Видео Как научить ребёнка правильно чистить зубы? (1998) DVDRip

Сообщение Нюша » 16 дек 2012, 18:27

Как научить ребёнка правильно чистить зубы? (1998) DVDRip

Русское название: Как научить ребёнка правильно чистить зубы?
Год выпуска: 1998
Производство: Россия
Жанр: Обучающий

Описание фильма:
Кругосветное путешествие за ослепительными улыбками

Вместе с доктором Кроликом ваш ребёнок совершит удивительное путешествие в разные страны, где узнает о том, как правильно чистить зубы, научится пользоваться зубной нитью. Этот мультфильм позволит приобрести уникальный опыт по правильному уходу за полостью рта. Чистка зубов превратится в увлекательную игру!

Продолжительность: 00:13:39
Качество видео: DVDRip

Видеокодек: XviD
Битрейт видео: 632 Кбит/сек
Размер кадра: 320x240
Аудио: AC3, 2 ch
Битрейт аудио: 256 Кбит/сек
Код:
Код: Выделить всё
Общее
Полное имя                               : F:\Раздачи\Раздачи Видео\Как научить ребёнка правильно чистить зубы.avi
Формат                                   : AVI
Формат/Информация                        : Audio Video Interleave
Размер файла                             : 87,7 Мбайт
Продолжительность                        : 13 м.
Общий поток                              : 898 Кбит/сек
Программа кодирования                    : VirtualDubMod 1.5.10.2 (build 2542/release)
Библиотека кодирования                   : VirtualDubMod build 2542/release

Видео
Идентификатор                            : 0
Формат                                   : MPEG-4 Visual
Профиль формата                          : Advanced Simple@L5
Параметр BVOP формата                    : 2
Параметр QPel формата                    : Нет
Параметр GMC формата                     : Без точки перехода
Параметр матрицы формата                 : Default (H.263)
Режим смешивания                         : Сжатый битовый поток
Идентификатор кодека                     : XVID
Идентификатор кодека/Подсказка           : XviD
Продолжительность                        : 13 м.
Битрейт                                  : 632 Кбит/сек
Ширина                                   : 320 пикселей
Высота                                   : 240 пикселей
Соотношение сторон                       : 5:4
Соотношение сторон в оригинале           : 4:3
Частота кадров                           : 25,000 кадров/сек
Цветовое пространство                    : YUV
Субдискретизация насыщенности            : 4:2:0
Битовая глубина                          : 8 бит
Тип развёртки                            : Прогрессивная
Метод сжатия                             : С потерями
Бит/(Пиксели*Кадры)                      : 0.329
Размер потока                            : 61,8 Мбайт (70%)
Библиотека кодирования                   : XviD 1.2.0SMP (UTC 2006-01-08)

Аудио
Идентификатор                            : 1
Формат                                   : AC-3
Формат/Информация                        : Audio Coding 3
Расширение режима                        : CM (complete main)
Параметр Endianness формата              : Big
Идентификатор кодека                     : 2000
Продолжительность                        : 13 м.
Вид битрейта                             : Постоянный
Битрейт                                  : 256 Кбит/сек
Каналы                                   : 2 канала
Расположение каналов                     : Front: L R
Частота                                  : 48,0 КГц
Битовая глубина                          : 16 бит
Метод сжатия                             : С потерями
Размер потока                            : 25,0 Мбайт (28%)
Выравнивание                             : Соединение по промежуткам
Продолжительность промежутка             : 40  мс. (1,00 видеокадр)
Время предзагрузки промежутка            : 512  мс.
Скриншоты:

Время раздачи: 9.00 - 23.00 (по мере возможности...)

Постеры

Соцсети

 

Вернуться в Развитие и воспитание детей (0-5 лет)



Кто сейчас на конференции

Сейчас этот форум просматривают: Googlebot и гости: 0