Видео


Сообщение

Видео Клуб Микки Мауса: Детектив Минни [2006-2009, DVDRip]

Сообщение Таточка » 21 янв 2012, 19:06

Русское название: Клуб Микки Мауса: Детектив Минни
Оригинальное название: Mickey Mouse Clubhouse: Detective Minnie
Год выпуска: 2006-2009
Жанр: Анимационный, Обучающий, Развивающий
Режиссер: Келли Уорд, Шери Поллак, Роб ЛаДука



Перевод: Дублированный
Участники: Микки, Минни, Гуффи, Пит, Дональд, Плуто, Дэйзи и другие
Описание фильма:
Кто самый великий сыщик после Шерлока Холмса? Не кто иной, как Детектив Мини! Присоединяйтесь к новым невероятным приключениям любимых героев в новом мультфильме от Disney «Детектив Минни», и Вам предстоит распутать не одно сложное дело! Вместе с Минни и друзьями Вы разберетесь с любой запутанной головоломкой быстрее, чем успеете сказать: «Дело закрыто!» Специально для «Дня Дружбы» Мини и Дэйзи сделали двенадцать красивых праздничных шляпок! Но вскоре головные уборы куда-то исчезают, и теперь Вы вместе с Детективом Мини и Секретным агентом Дэйзи должны разыскать пропажу! Вас ждут увлекательные игры и головоломки, невероятные приключения и открытия, к которым Вам захочется возвращаться снова и снова. Играйте и учитесь с нами!

Содержание:
1. Спецагент Дэйзи
2. День Друзей
3. Клубный Карнавал

Продолжительность: 3 х ~ 00:24:00
Качество видео: DVDRip

Видеокодек: DivX 5
Битрейт видео: ~1 894 Kbps
Размер кадра: 720 x 536
Аудиокодек: AC3 2.0
Битрейт аудио: 192 Kbps
General
Complete name: Клуб Микки Мауса - Детектив Минни\01 Спецагент Дэйзи.avi
Format: AVI
Format/Info: Audio Video Interleave
File size: 346 MiB
Duration: 23mn 4s
Overall bit rate: 2 097 Kbps
Movie name: Клуб Микки Мауса - Детектив Минни.Title6.DVDRip
Writing application: Lavf52.33.0
Original source form/Name: Клуб Микки Мауса - Детектив Минни

Video
ID: 0
Format: MPEG-4 Visual
Format profile: Simple@L3
Format settings, BVOP: No
Format settings, QPel: No
Format settings, GMC: No warppoints
Format settings, Matrix: Default (H.263)
Codec ID: DX50
Codec ID/Hint: DivX 5
Duration: 23mn 4s
Bit rate: 1 894 Kbps
Width: 720 pixels
Height: 536 pixels
Display aspect ratio: 4:3
Frame rate: 25.000 fps
Color space: YUV
Chroma subsampling: 4:2:0
Bit depth: 8 bits
Scan type: Progressive
Compression mode: Lossy
Bits/(Pixel*Frame): 0.196
Stream size: 312 MiB (90%)
Writing library: XviD 1.2.1 (UTC 2008-12-04)

Audio
ID: 1
Format: AC-3
Format/Info: Audio Coding 3
Mode extension: CM (complete main)
Codec ID: 2000
Duration: 23mn 4s
Bit rate mode: Constant
Bit rate: 192 Kbps
Channel(s): 2 channels
Channel positions: Front: L R
Sampling rate: 48.0 KHz
Bit depth: 16 bits
Compression mode: Lossy
Stream size: 31.7 MiB (9%)
Alignment: Aligned on interleaves
Interleave, duration: 32 ms (0.80 video frame)
Скриншоты:


Время раздачи: 18:00 - 00:00

Постеры

Соцсети

 

Вернуться в Развитие и воспитание детей (0-5 лет)



Кто сейчас на конференции

Сейчас этот форум просматривают: bingbot, CCBot и гости: 0