Видео

Сообщение

Видео Клуб Микки Мауса: Микки спасает Санту [2006, DVDRip]

Сообщение Таточка » 21 янв 2012, 19:05

Русское название: Клуб Микки Мауса: Микки спасает Санту
Оригинальное название: Mickey Saves Santa and Other Mouseketales
Год выпуска: 2006
Производство: США
Жанр: Детский, Обучающий, Развивающий
Перевод: Дублированный
Вид субтитров: Отдельным файлом
Язык субтитров: русский
Режиссер: Роб ЛаДука



Участники: Микки, Минни, Гуффи, Пит, Дональд, Плуто, Дэйзи и другие
Описание фильма:
Когда знаменитые летающие сани Санты терпят бедствие на заснеженном склоне, на помощь приходят Микки и Дональд. Веселая компания играет в прятки с чемпионом по маскировке — Дональдом Даком! А вот Гуфи ждут дела поважнее — он помогает потерявшемуся птенцу отыскать дорогу домой к маме. Три веселых истории о помощи, взаимовыручке и о том, что самый лучший подарок, это когда тебя окружаю настоящие друзья!
Содержание:
1. Кто спасет Рождество
2. Потеряшка
3. Прятки
Бонус: Маленькие Энштейны
Продолжительность: 4 х ~ 00:23:00
Качество видео: DVDRip
Видеокодек: DivX 5
Битрейт видео: ~1 942 Kbps
Размер кадра: 720 x 540
Аудиокодек: AC3 2.0
Битрейт аудио: 192 Kbps
General
Complete name: Клуб Микки Мауса - Микки спасает Санту\Кто спасет Рождество.avi
Format: AVI
Format/Info: Audio Video Interleave
File size: 354 MiB
Duration: 23mn 3s
Overall bit rate: 2 145 Kbps
Movie name: Klub.Mikki.Mausa.Mikki.spasaet.Santu.2006.DVD-9.Title1.DVDRip
Writing application: Lavf52.33.0
Original source form/Name: Klub.Mikki.Mausa.Mikki.spasaet.Santu.2006.DVD-9

Video
ID: 0
Format: MPEG-4 Visual
Format profile: Simple@L3
Format settings, BVOP: No
Format settings, QPel: No
Format settings, GMC: No warppoints
Format settings, Matrix: Default (H.263)
Codec ID: DX50
Codec ID/Hint: DivX 5
Duration: 23mn 3s
Bit rate: 1 942 Kbps
Width: 720 pixels
Height: 540 pixels
Display aspect ratio: 4:3
Frame rate: 25.000 fps
Color space: YUV
Chroma subsampling: 4:2:0
Bit depth: 8 bits
Scan type: Progressive
Compression mode: Lossy
Bits/(Pixel*Frame): 0.200
Stream size: 320 MiB (91%)
Writing library: XviD 1.2.1 (UTC 2008-12-04)

Audio
ID: 1
Format: AC-3
Format/Info: Audio Coding 3
Format profile: Dolby Digital
Mode extension: CM (complete main)
Codec ID: 2000
Duration: 23mn 3s
Bit rate mode: Constant
Bit rate: 192 Kbps
Channel(s): 2 channels
Channel positions: Front: L R
Sampling rate: 48.0 KHz
Bit depth: 16 bits
Compression mode: Lossy
Stream size: 31.7 MiB (9%)
Alignment: Aligned on interleaves
Interleave, duration: 32 ms (0.80 video frame)
Скриншоты:


Время раздачи: 18:00 - 00:00

Постеры

Соцсети

 

Вернуться в Развитие и воспитание детей (0-5 лет)



Кто сейчас на конференции

Сейчас этот форум просматривают: CCBot и гости: 0