Видео


Сообщение

Видео Когда ребёнок учится сидеть, ползать, ходить (2008) DVDRip

Сообщение Нюша » 16 дек 2012, 18:24

Когда ребёнок учится сидеть, ползать, ходить (2008) DVDRip

Русское название: Когда ребёнок учится сидеть, ползать, ходить
Год выпуска: 2008
Производство: Латвия
Жанр: Обучающий

Перевод: Одноголосый закадровый, профессиональный

Описание фильма:
На первом году жизни малыши сами, или при поддержке родителей, осваивают многие навыки, но самую большую радость родителям обычно доставляют первые шаги ребенка. Правда до этого, надо ещё научиться сидеть и ползать. Малышу нужна физическая подготовка и желание учиться новому, а папа с мамой должны вооружиться терпением и знаниями. Посмотрев этот фильм вы узнаете, как понять, что малыш готов сидеть, ползать и ходить, как проследить, чтобы ребенок сделал это правильно и какие ошибки родители обычно совершают, стараясь помочь малышу освоить новый мир.

Продолжительность: 00:31:15
Качество видео: DVDRip

Видеокодек: Xvid
Битрейт видео: ~1399 kb/s
Размер кадра: 640х480
Аудиокодек: MP3 2ch
Битрейт аудио: 160 kb/s
Формат: AVI
Формат/Информация: Audio Video Interleave
Размер файла: 351 Мбайт
Продолжительность: 31 м.
Общий поток: 1571 Кбит/сек
Программа кодирования: Lavf51.6.0

Видео
Идентификатор: 0
Формат: MPEG-4 Visual
Профиль формата: Simple@L3
Параметр BVOP формата: Нет
Параметр QPel формата: Нет
Параметр GMC формата: Без точки перехода
Параметр матрицы формата: Default (H.263)
Идентификатор кодека: XVID
Идентификатор кодека/Подсказка: XviD
Продолжительность: 31 м.
Битрейт: 1399 Кбит/сек
Ширина: 640 пикселей
Высота: 480 пикселей
Соотношение сторон: 4:3
Частота кадров: 25,000 кадров/сек
Цветовое пространство: YUV
Субдискретизация насыщенности: 4:2:0
Битовая глубина: 8 бит
Тип развёртки: Прогрессивная
Метод сжатия: С потерями
Бит/(Пиксели*Кадры): 0.182
Размер потока: 313 Мбайт (89%)
Библиотека кодирования: XviD 1.1.0 (UTC 2005-11-22)

Аудио
Идентификатор: 1
Формат: MPEG Audio
Версия формата: Version 1
Профиль формата: Layer 3
Режим: Joint stereo
Расширение режима: MS Stereo
Идентификатор кодека: 55
Идентификатор кодека/Подсказка: MP3
Продолжительность: 31 м.
Вид битрейта: Постоянный
Битрейт: 160 Кбит/сек
Каналы: 2 канала
Частота: 48,0 КГц
Метод сжатия: С потерями
Размер потока: 35,8 Мбайт (10%)
Выравнивание: Соединение по промежуткам
Продолжительность промежутка: 24мс. (0,60 видеокадр)
Библиотека кодирования: LAME3.96.1
Скриншоты:


Смотрите так же другие мои раздачи



Время раздачи: с 8:00 до 24:00 до первых 10-ти скачавших, далее по возможности

Постеры

Соцсети

 

Вернуться в Развитие и воспитание детей (0-5 лет)



Кто сейчас на конференции

Сейчас этот форум просматривают: SemrushBot и гости: 0