Видео


Сообщение

Видео Массаж для малышей: от рождения, до года. [2005] DVDRip

Сообщение Нюша » 16 дек 2012, 18:28

Илья Тилькин | Массаж для малышей: от рождения, до года. [2005] DVDRip

Автор (режиссер): Илья Тилькин
Название: Массаж для малышей: от рождения, до года.
Год выпуска: 2005
Жанр: Обучающее видео

Описание:

Задолго до появления на свет, Ваш малыш знакомится с Вами. Он прислушивается к стуку Вашего сердца и ритму шагов, узнаёт Ваш голос и ласковое прикосновение рук. После рождения малышу необходим контакт с Вами - кожа к коже. Лучшее средство для этого - ежедневный массаж. Массаж развивает младенца, помогает ему ощутить собственную значимость и ценность. Массаж - это обмен энергией между родителями и ребёнком, возможность выразить свою любовь, двигаясь в унисон с потребностями и желаниями малыша. В предлагаемом видео врач-педиатр покажет и поможет освоить несложные приёмы домашнего массажа новорождённых и детей до одного года, даст основные рекомендации, предупредит от возможных ошибок. Это курс профилактического массажа, для здоровья ребёнка и любящих родителей.

Качество видео: DVDRip
Продолжительность: 01:05:48

Видеокодек: XviD
Битрейт видео: ~2175 Кбит/с
Размер кадра: 704х536
Аудиокодек: AC3 2.0
Битрейт аудио: 192 Кбит/с
Общее
Полное имя: D:\Doc.filmi\всякое\Ot.rogdenij.do.goda.2005.XviD.DVDRip.[nnm-club.ru].avi
Формат: AVI
Формат/Информация: Audio Video Interleave
Размер файла: 1,09 Гбайт
Продолжительность: 1 ч. 5 м.
Общий поток: 2373 Кбит/сек
Программа кодирования: VirtualDubMod 1.5.10.2 (build 2540/release)
Библиотека кодирования: VirtualDubMod build 2540/release

Видео
Идентификатор: 0
Формат: MPEG-4 Visual
Профиль формата: Advanced Simple@L5
Параметр BVOP формата: 1
Параметр QPel формата: Да
Параметр GMC формата: Без точки перехода
Параметр матрицы формата: Default (MPEG)
Идентификатор кодека: XVID
Идентификатор кодека/Подсказка: XviD
Продолжительность: 1 ч. 5 м.
Битрейт: 2172 Кбит/сек
Ширина: 704 пикселя
Высота: 536 пикселей
Соотношение сторон: 4:3
Частота кадров: 25,000 кадров/сек
Цветовое пространство: YUV
Субдискретизация насыщенности: 4:2:0
Битовая глубина: 8 бит
Тип развёртки: Прогрессивная
Метод сжатия: С потерями
Бит/(Пиксели*Кадры): 0.230
Размер потока: 1022 Мбайт (92%)
Библиотека кодирования: XviD 1.2.1 (UTC 2008-12-04)

Аудио
Идентификатор: 1
Формат: AC-3
Формат/Информация: Audio Coding 3
Расширение режима: CM (complete main)
Идентификатор кодека: 2000
Продолжительность: 1 ч. 5 м.
Вид битрейта: Постоянный
Битрейт: 192 Кбит/сек
Каналы: 2 канала
Расположение каналов: Front: L R
Частота: 48,0 КГц
Битовая глубина: 16 бит
Метод сжатия: С потерями
Размер потока: 90,1 Мбайт (8%)
Выравнивание: Соединение по промежуткам
Продолжительность промежутка: 40мс. (1,00 видеокадр)
Время предзагрузки промежутка: 512мс.
Скриншоты:



Время раздачи: С 06:00 до 22:00

Постеры

Соцсети

 

Вернуться в Развитие и воспитание детей (0-5 лет)



Кто сейчас на конференции

Сейчас этот форум просматривают: CCBot и гости: 0