Видео


Сообщение

Видео Мои Друзья Тигруля и Винни : Супер Пупер Сыщики [2010, DVDRip]

Сообщение Таточка » 21 янв 2012, 19:05

Русское название: Мои Друзья Тигруля и Винни : Супер Пупер Сыщики
Оригинальное название: My Friends Tigger & Pooh: Super Duper Super Sleuths
Год выпуска: 2010
Производство: США
Жанр: Детский, Обучающий, Развивающий

Перевод: Многоголосый закадровый, любительский
Режиссер: Дон МакКиннон
Участники: Бастер, Дарби, Ру, Винни Пух, Лампи, Пиглет, Тигра, Кролик

Описание фильма:
Однажды ночью Дарби, Бастер, Винни, Тигруля, Ру и Хрюня наблюдают падающую звезду и на следующий день они решают осмотреть место падения. Но Стоакровый лес очень большой, и вся дружная команда должна проявить все свои навыки настоящих сыщиков.

Продолжительность: 00:45:06
Качество видео: DVDRip

Видеокодек: Xvid
Битрейт видео: ~1 770 Kbps
Размер кадра: 704 x 384
Аудиокодек: AC3 5.1
Битрейт аудио: 384 Kbps
General
Complete name: Мои друзья Тигруля и Винни - Супер сыщики.avi
Format: AVI
Format/Info: Audio Video Interleave
File size: 699 MiB
Duration: 45mn 6s
Overall bit rate: 2 166 Kbps
Writing application: VirtualDubMod 1.5.10.2 (build 2540/release)
Writing library: VirtualDubMod build 2540/release

Video
ID: 0
Format: MPEG-4 Visual
Format profile: Advanced Simple@L5
Format settings, BVOP: 2
Format settings, QPel: No
Format settings, GMC: No warppoints
Format settings, Matrix: Default (MPEG)
Muxing mode: Packed bitstream
Codec ID: XVID
Codec ID/Hint: XviD
Duration: 45mn 6s
Bit rate: 1 770 Kbps
Width: 704 pixels
Height: 384 pixels
Display aspect ratio: 16:9
Frame rate: 29.970 fps
Color space: YUV
Chroma subsampling: 4:2:0
Bit depth: 8 bits
Scan type: Progressive
Compression mode: Lossy
Bits/(Pixel*Frame): 0.219
Stream size: 571 MiB (82%)
Writing library: XviD 1.2.1 (UTC 2008-12-04)

Audio
ID: 1
Format: AC-3
Format/Info: Audio Coding 3
Mode extension: CM (complete main)
Codec ID: 2000
Duration: 45mn 5s
Bit rate mode: Constant
Bit rate: 384 Kbps
Channel(s): 6 channels
Channel positions: Front: L C R, Side: L R, LFE
Sampling rate: 48.0 KHz
Bit depth: 16 bits
Compression mode: Lossy
Delay relative to video: 24ms
Stream size: 124 MiB (18%)
Alignment: Split accross interleaves
Interleave, duration: 33 ms (1.00 video frame)
Interleave, preload duration: 500 ms
Скриншоты:


Время раздачи: 18:00 - 00:00

Постеры

Соцсети

 

Вернуться в Развитие и воспитание детей (0-5 лет)



Кто сейчас на конференции

Сейчас этот форум просматривают: CCBot и гости: 0