Видео

Сообщение

Видео Мои друзья Тигруля и Винни: Загадки природы [2008, DVDRip]

Сообщение Таточка » 21 янв 2012, 19:06

Русское название: Мои друзья Тигруля и Винни: Загадки природы
Оригинальное название: My Friends Tigger and Pooh: The Nature of Things
Год выпуска: 2008
Производство: США
Жанр: Анимационный, Обучающий, Развивающий



Перевод: Дублированный
Режиссер: Дэвид Хартманн, Дон Маккиннон
Участники: Бастер, Дарби, Ру, Винни Пух, Лампи, Дарби, Пиглет, Тигра, Кролик
Описание фильма:
Присоединяйтесь к новым приключениям любимых героев на Disney DVD и Вы узнаете, сколько интересных и удивительных вещей происходит в Большом лесу!
Нас окружает удивительный и большой мир. А разобраться в том, как и почему так устроен этот мир: почему тает снеговик и почему старая нора «разговаривает» с Хрюней, нам поможет не кто иной, как Суперсыщик!
Море веселья и шуток, загадок и приключений не оставят Вас равнодушными и Вам не раз захочется вернуться в Большой лес к старым друзьям!
Содержание:
1. Тайна старой пещеры
2. Кто поможет Ру
3. Зуб за зуб
4. Снеговик
5. Тайна пропавшей бурчалки
6. Разумный компромисс

Продолжительность: 6 х ~ 00:11:30
Качество видео: DVDRip
Видеокодек: Xvid
Битрейт видео: ~1 516 Kbps
Размер кадра: 704 x 512
Аудиокодек: MP3
Битрейт аудио: 128 Kbps
Audio: MPEG Audio Layer 3 48000Hz stereo 128kbps [EN]
Audio: MPEG Audio Layer 3 48000Hz stereo 128kbps [RU]
General
Complete name: Мои друзья Тигруля и Винни - Загадки природы\01 - Тайна старой пещеры.avi
Format: AVI
Format/Info: Audio Video Interleave
File size: 150 MiB
Duration: 11mn 45s
Overall bit rate: 1 786 Kbps
Writing application: VirtualDubMod 1.5.10.2 (build 2540/release)
Writing library: VirtualDubMod build 2540/release

Video
ID: 0
Format: MPEG-4 Visual
Format profile: Advanced Simple@L5
Format settings, BVOP: 2
Format settings, QPel: No
Format settings, GMC: No warppoints
Format settings, Matrix: Default (MPEG)
Muxing mode: Packed bitstream
Codec ID: XVID
Codec ID/Hint: XviD
Duration: 11mn 45s
Bit rate: 1 516 Kbps
Width: 704 pixels
Height: 512 pixels
Display aspect ratio: 1.375
Frame rate: 25.000 fps
Color space: YUV
Chroma subsampling: 4:2:0
Bit depth: 8 bits
Scan type: Progressive
Compression mode: Lossy
Bits/(Pixel*Frame): 0.168
Stream size: 128 MiB (85%)
Writing library: XviD 1.2.1 (UTC 2008-12-04)

Audio #1
ID: 1
Format: MPEG Audio
Format version: Version 1
Format profile: Layer 3
Mode: Joint stereo
Mode extension: MS Stereo
Codec ID: 55
Codec ID/Hint: MP3
Duration: 11mn 45s
Bit rate mode: Constant
Bit rate: 128 Kbps
Channel(s): 2 channels
Sampling rate: 48.0 KHz
Compression mode: Lossy
Delay relative to video: 216ms
Stream size: 10.8 MiB (7%)
Alignment: Aligned on interleaves
Interleave, duration: 40 ms (1.00 video frame)
Interleave, preload duration: 504 ms

Audio #2
ID: 2
Format: MPEG Audio
Format version: Version 1
Format profile: Layer 3
Mode: Joint stereo
Mode extension: MS Stereo
Codec ID: 55
Codec ID/Hint: MP3
Duration: 11mn 45s
Bit rate mode: Constant
Bit rate: 128 Kbps
Channel(s): 2 channels
Sampling rate: 48.0 KHz
Compression mode: Lossy
Delay relative to video: 480ms
Stream size: 10.8 MiB (7%)
Alignment: Aligned on interleaves
Interleave, duration: 40 ms (1.00 video frame)
Interleave, preload duration: 504 ms
Скриншоты:


Время раздачи: 18:00 - 00:00

Постеры

Соцсети

 

Вернуться в Развитие и воспитание детей (0-5 лет)



Кто сейчас на конференции

Сейчас этот форум просматривают: CCBot и гости: 0