Видео


Сообщение

Видео Нет! плоскостопию у детей (2010) DVDRip

Сообщение Нюша » 16 дек 2012, 18:25

Нет! плоскостопию у детей (2010) DVDRip

Название: Нет! плоскостопию у детей
Год выпуска: 2010
Производство: SovaFilm
Жанр: Обучающее видео

Описание:
Плоскостопие - это болезнь цивилизации. Стопа деформируется, её своды уплощаются. Плоскостопие приводит к проблеме с позвоночником, а это значит, что будут проблемы и с внутренними органами. У детей плоскостопие встречается особенно часто. Его причины - это неудобная обувь, гиподинамия и многое другое. Все это может повлечь за собой деформацию позвоночника, нарушение осанки, ослабление опорно-двигательного аппарата.
Из предлагаемого фильма вы узнаете как делать массаж, какие упражнения следует выполнять для укрепления мышечно-связочного аппарата ног. Теперь вы сможете сами определить есть ли у вашего ребенка плоскостопие и подобрать правильную обувь.

Продолжительность: 00:31:00

Озвучивание: Русский
Видеокодек: Xvid
Битрейт видео: ~1800 Кбит/сек
Размер кадра: 640х360
Качество видео: DVDRip
Аудиокодек: MP3, 2 канала
Битрейт аудио: 192 Кбит/сек
Общее
Полное имя: G:\RELIZY\SK Net.ploskostopiy.2010 DET.avi
Формат: AVI
Формат/Информация: Audio Video Interleave
Размер файла: 451 Мбайт
Продолжительность: 31 м.
Режим общего битрейта: Переменный
Общий поток: 1990 Кбит/сек
Программа кодирования: VirtualDubMod 1.5.10.2 (build 2540/release)
Библиотека кодирования: VirtualDubMod build 2540/release

Видео
Идентификатор: 0
Формат: MPEG-4 Visual
Профиль формата: Advanced Simple@L5
Параметр BVOP формата: 1
Параметр QPel формата: Нет
Параметр GMC формата: Без точки перехода
Параметр матрицы формата: Default (H.263)
Идентификатор кодека: XVID
Идентификатор кодека/Подсказка: XviD
Продолжительность: 31 м.
Битрейт: 1800 Кбит/сек
Ширина: 640 пикселей
Высота: 360 пикселей
Соотношение сторон: 16:9
Частота кадров: 25,000 кадров/сек
Цветовое пространство: YUV
Субдискретизация насыщенности: 4:2:0
Битовая глубина: 8 бит
Тип развёртки: Прогрессивная
Метод сжатия: С потерями
Бит/(Пиксели*Кадры): 0.312
Размер потока: 408 Мбайт (90%)
Библиотека кодирования: XviD 1.2.1 (UTC 2008-12-04)

Аудио
Идентификатор: 1
Формат: MPEG Audio
Версия формата: Version 1
Профиль формата: Layer 3
Идентификатор кодека: 55
Идентификатор кодека/Подсказка: MP3
Продолжительность: 31 м.
Вид битрейта: Переменный
Битрейт: 177 Кбит/сек
Номинальный битрейт: 192 Кбит/сек
Каналы: 2 канала
Частота: 48,0 КГц
Метод сжатия: С потерями
Размер потока: 40,1 Мбайт (9%)
Выравнивание: Соединение по промежуткам
Продолжительность промежутка: 24мс. (0,60 видеокадр)
Время предзагрузки промежутка: 561мс.
Библиотека кодирования: LAME3.98r
Настройки программы: -m s -V 4 -q 2 -lowpass 18.6 --abr 192
Скриншоты:


Время раздачи: I-V: 17:00-0:00 VI-VII: 10:00-0:00

Понравилось - ставь оценку и жми СПАСИБО

Постеры

Соцсети

 

Вернуться в Развитие и воспитание детей (0-5 лет)



Кто сейчас на конференции

Сейчас этот форум просматривают: CCBot и гости: 0