Видео


Сообщение

Видео Ребенок и уход за ним (2005) DVD5

Сообщение Нюша » 16 дек 2012, 18:26

Ребенок и уход за ним (2005) DVD5

Русское название: Ребенок и уход за ним
Год выпуска: 2005
Производство: Россия
Жанр: Обучающий

Описание фильма:
Дорогие родители! На свет появился ваш малыш! И большинство из вас имеет возможность, при необходимости, обратиться к врачу. Врач знает вашего ребенка и только он может дать вам самый лучший совет.
Фильм "Ребенок и уход за ним", снятый при участии врачей-педиатров, дает общее представление о ребенке и о его нуждах, содержит простые решения сложных вопросов и проблем, возникающих в процессе ухода за детьми, их кормления, воспитания, лечения, и будет полезен в каждой семье, где есть дети.
Продолжительность: 00:53:31
Качество видео: DVD5

Видеокодек: MPEG-2
Битрейт видео: ~6460 kb/s
Размер кадра: 720x576
Аудиокодек: AC3 2 ch
Битрейт аудио: 192 kb/s
Фильм поможет родителям чувствовать себя уверенно в самый трудный и ответственный период - первый год жизни ребенка, когда закладываются основы его здоровья и счастья в будущем. Большое внимание в фильме уделяется как будто бы мелочам: как добиться, чтобы ребенок вырос здоровым, что нужно предпринять, если ребенок плачет и как его успокоить, как покормить, основы массажа, физические упражнения и т.д. Но из таких мелочей и складывается комплекс воспитания, поэтому советы являются весьма ценными.
От себя добавлю - что диск очень пригодится начинающим родителям - там практически все по уходу за ребенком от рождения до года
Title: REBENOK
Size: 2.75 Gb ( 2 882 728,00 KBytes ) - DVD-5
Enabled regions: 1, 2, 3, 4, 5, 6, 7, 8

VTS_01 :
Play Length: 00:53:31
Video: PAL 4:3 (720x576) VBR
Audio:
Russian (Dolby AC3, 2 ch)

VTS_02 :
Play Length: 00:00:39
Video: PAL 4:3 (720x576) VBR
Audio:
Russian (Dolby AC3, 2 ch)

* Menus Information *

VIDEO_TS Menu
Video:
PAL 4:3 (720x576) VBR
Russian Language Unit :
Title Menu

VTS_01 Menu
Video:
PAL 4:3 (720x576) VBR
Audio:
Not specified (Dolby AC3, 2 ch)
Russian Language Unit :
Root Menu
Chapter (PTT) Menu

VTS_02 Menu
Video:
PAL 4:3 (720x576) VBR
Russian Language Unit :
Root Menu
Формат: MPEG-PS
Размер файла: 1024 Мбайт
Продолжительность: 21 м.
Режим общего битрейта: Переменный
Общий поток: 6787 Кбит/сек

Видео
Идентификатор: 224 (0xE0)
Формат: MPEG Video
Версия формата: Version 2
Профиль формата: Main@Main
Параметр BVOP формата: Да
Параметр матрицы формата: Выборочная
Продолжительность: 21 м.
Вид битрейта: Переменный
Битрейт: 6460 Кбит/сек
Максимальный битрейт: 9000 Кбит/сек
Ширина: 720 пикселей
Высота: 576 пикселей
Соотношение сторон: 4:3
Частота кадров: 25,000 кадров/сек
Стандарт вещания: PAL
Цветовое пространство: YUV
Субдискретизация насыщенности: 4:2:0
Битовая глубина: 8 бит
Тип развёртки: Чересстрочная
Порядок развёртки: Нижнее поле первое
Метод сжатия: С потерями
Бит/(Пиксели*Кадры): 0.623
Размер потока: 975 Мбайт (95%)

Аудио
Идентификатор: 189 (0xBD)-128 (0x80)
Формат: AC-3
Формат/Информация: Audio Coding 3
Расширение режима: CM (complete main)
Параметр Endianness формата: Big
Режим смешивания: DVD-Video
Продолжительность: 21 м.
Вид битрейта: Постоянный
Битрейт: 192 Кбит/сек
Каналы: 2 канала
Расположение каналов: Front: L R
Частота: 48,0 КГц
Битовая глубина: 16 бит
Метод сжатия: С потерями
Размер потока: 29,0 Мбайт (3%)
Скриншоты:


Смотрите так же другие мои раздачи



Время раздачи: с 8:00 до 24:00 до первых 10-ти скачавших, далее по возможности

Постеры

Соцсети

 

Вернуться в Развитие и воспитание детей (0-5 лет)



Кто сейчас на конференции

Сейчас этот форум просматривают: CCBot и гости: 0