Видео

Сообщение

Видео Российская Суперняня (2006) TVRip

Сообщение Нюша » 16 дек 2012, 18:23

Российская Суперняня (2006) TVRip

Русское название: Российская Суперняня
Год выпуска: 2006
Производство: Россия (Ren-TV)
Жанр: Для родителей, Психология, Педагогика
Суперняня: Наталья Барложецкая

Описание фильма:
Российский телепроект "суперняня" был создан после великолепного триумфа детского педагогического европейского шоу "Суперняня" и "Няня 911" с начала 2006 года. Непослушные, несговорчивые, шаловливые, буйные, плаксивые дети - проблема большинства многодетных семей. Родители не в состоянии предпринять какие-либо усилия. Ничего не помогает. Но теперь есть выход - позвонить "волшебнице из телевизора", у которой за плечами многолетний опыт воспитания маленьких и взрослых. За промежуток времени Суперняня превращает детей в ангелов, возвращает в семью ауру любви и согласия путем определенных советов и методов общения родителей с детьми.
Теперь пришла пора российской суперняни. Специалист высочайшего класса - Наталья Барложецкая уже в пути. За время многолетней практики суперняня сталкивалась с самыми неуправляемыми ребятами и упрямыми взрослыми и теперь идет на очередное испытание...
Список эпизодов:
1) Семья Апостолидис 00:43:09
2) Семья Артюшиных 00:43:21
3) Семья Бирюковых 00:43:15
4) Семья Вепринцевых 00:43:13
5) Семья Вергасовых 00:43:16
6) Семья Воронцовых 00:42:03
7) Семья Генкиных 00:43:06
8) Семья Матвеевых 00:43:27
9) Семья Стоумовых 00:43:21
10) Семья Сысоевых 00:43:25
11) Семья Шахназаровых 00:43:16
Качество видео: TVRip

Видеокодек: Xvid
Битрейт видео: ~1500 Кбит/сек
Размер кадра: 720 х 544, (4:3)
Аудиокодек: MP3, 2.0
Битрейт аудио: 192 Кбит/сек
Общее
Полное имя: D:\Downloads\Суперняня\Семья Апостолидис.avi
Формат: AVI
Формат/Информация: Audio Video Interleave
Размер файла: 526 Мбайт
Продолжительность: 43 м.
Общий поток: 1703 Кбит/сек
Программа кодирования: Lavf52.94.0

Видео
Идентификатор: 0
Формат: xvid
Идентификатор кодека: xvid
Продолжительность: 43 м.
Битрейт: 1498 Кбит/сек
Ширина: 720 пикс.
Высота: 544 пикс.
Соотношение сторон: 4:3
Частота кадров: 25,000 кадр/сек
Бит/(Пиксели*Кадры): 0.153
Размер потока: 462 Мбайт (88%)

Аудио
Идентификатор: 1
Формат: MPEG Audio
Версия формата: Version 1
Профиль формата: Layer 3
Режим: Joint stereo
Расширение режима: MS Stereo
Идентификатор кодека: 55
Идентификатор кодека/Подсказка: MP3
Продолжительность: 43 м.
Вид битрейта: Постоянный
Битрейт: 192 Кбит/сек
Каналы: 2 канала
Частота: 48,0 КГц
Метод сжатия: С потерями
Размер потока: 59,3 Мбайт (11%)
Выравнивание: Соединение по промежуткам
Продолжительность промежутка: 24мс. (0,60 видеокадр)
Библиотека кодирования: LAME3.98.4ЄЄЄЄЄЄЄЄЄЄ
~~~~~~~~~~~~~~~~~~~~~~~~~~~~~~~~~~~~~~~~~~~~~~~~~~~~~~
Общее
Полное имя: D:\Downloads\Суперняня\Семья Артюшиных.avi
Формат: AVI
Формат/Информация: Audio Video Interleave
Размер файла: 528 Мбайт
Продолжительность: 43 м.
Общий поток: 1702 Кбит/сек
Программа кодирования: Lavf52.94.0

Видео
Идентификатор: 0
Формат: xvid
Идентификатор кодека: xvid
Продолжительность: 43 м.
Битрейт: 1497 Кбит/сек
Ширина: 720 пикс.
Высота: 544 пикс.
Соотношение сторон: 4:3
Частота кадров: 25,000 кадр/сек
Бит/(Пиксели*Кадры): 0.153
Размер потока: 464 Мбайт (88%)

Аудио
Идентификатор: 1
Формат: MPEG Audio
Версия формата: Version 1
Профиль формата: Layer 3
Режим: Joint stereo
Расширение режима: MS Stereo
Идентификатор кодека: 55
Идентификатор кодека/Подсказка: MP3
Продолжительность: 43 м.
Вид битрейта: Постоянный
Битрейт: 192 Кбит/сек
Каналы: 2 канала
Частота: 48,0 КГц
Метод сжатия: С потерями
Размер потока: 59,5 Мбайт (11%)
Выравнивание: Соединение по промежуткам
Продолжительность промежутка: 24мс. (0,60 видеокадр)
Библиотека кодирования: LAME3.98.4ЄЄЄЄЄЄЄЄЄЄ
~~~~~~~~~~~~~~~~~~~~~~~~~~~~~~~~~~~~~~~~~~~~~~~~~~~~~
Общее
Полное имя: D:\Downloads\Суперняня\Семья Бирюковых.avi
Формат: AVI
Формат/Информация: Audio Video Interleave
Размер файла: 527 Мбайт
Продолжительность: 43 м.
Общий поток: 1704 Кбит/сек
Программа кодирования: Lavf52.94.0

Видео
Идентификатор: 0
Формат: xvid
Идентификатор кодека: xvid
Продолжительность: 43 м.
Битрейт: 1499 Кбит/сек
Ширина: 720 пикс.
Высота: 544 пикс.
Соотношение сторон: 4:3
Частота кадров: 25,000 кадр/сек
Бит/(Пиксели*Кадры): 0.153
Размер потока: 464 Мбайт (88%)

Аудио
Идентификатор: 1
Формат: MPEG Audio
Версия формата: Version 1
Профиль формата: Layer 3
Режим: Joint stereo
Расширение режима: MS Stereo
Идентификатор кодека: 55
Идентификатор кодека/Подсказка: MP3
Продолжительность: 43 м.
Вид битрейта: Постоянный
Битрейт: 192 Кбит/сек
Каналы: 2 канала
Частота: 48,0 КГц
Метод сжатия: С потерями
Размер потока: 59,4 Мбайт (11%)
Выравнивание: Соединение по промежуткам
Продолжительность промежутка: 24мс. (0,60 видеокадр)
Библиотека кодирования: LAME3.98.4ЄЄЄЄЄЄЄЄЄЄ
~~~~~~~~~~~~~~~~~~~~~~~~~~~~~~~~~~~~~~~~~~~~~~~~~~~~~~~~
Общее
Полное имя: D:\Downloads\Суперняня\Семья Вепринцевых.avi
Формат: AVI
Формат/Информация: Audio Video Interleave
Размер файла: 455 Мбайт
Продолжительность: 43 м.
Общий поток: 1471 Кбит/сек
Программа кодирования: Lavf52.94.0

Видео
Идентификатор: 0
Формат: xvid
Идентификатор кодека: xvid
Продолжительность: 43 м.
Битрейт: 1266 Кбит/сек
Ширина: 720 пикс.
Высота: 544 пикс.
Соотношение сторон: 4:3
Частота кадров: 25,000 кадр/сек
Бит/(Пиксели*Кадры): 0.129
Размер потока: 391 Мбайт (86%)

Аудио
Идентификатор: 1
Формат: MPEG Audio
Версия формата: Version 1
Профиль формата: Layer 3
Режим: Joint stereo
Расширение режима: MS Stereo
Идентификатор кодека: 55
Идентификатор кодека/Подсказка: MP3
Продолжительность: 43 м.
Вид битрейта: Постоянный
Битрейт: 192 Кбит/сек
Каналы: 2 канала
Частота: 48,0 КГц
Метод сжатия: С потерями
Размер потока: 59,4 Мбайт (13%)
Выравнивание: Соединение по промежуткам
Продолжительность промежутка: 24мс. (0,60 видеокадр)
Библиотека кодирования: LAMEЄЄЄ$
~~~~~~~~~~~~~~~~~~~~~~~~~~~~~~~~~~~~~~~~~~~~~~~~~~~~~~~~~~
Общее
Полное имя: D:\Downloads\Суперняня\Семья Вергасовых.avi
Формат: AVI
Формат/Информация: Audio Video Interleave
Размер файла: 527 Мбайт
Продолжительность: 43 м.
Общий поток: 1704 Кбит/сек
Программа кодирования: Lavf52.94.0

Видео
Идентификатор: 0
Формат: xvid
Идентификатор кодека: xvid
Продолжительность: 43 м.
Битрейт: 1499 Кбит/сек
Ширина: 720 пикс.
Высота: 544 пикс.
Соотношение сторон: 4:3
Частота кадров: 25,000 кадр/сек
Бит/(Пиксели*Кадры): 0.153
Размер потока: 464 Мбайт (88%)

Аудио
Идентификатор: 1
Формат: MPEG Audio
Версия формата: Version 1
Профиль формата: Layer 3
Режим: Joint stereo
Расширение режима: MS Stereo
Идентификатор кодека: 55
Идентификатор кодека/Подсказка: MP3
Продолжительность: 43 м.
Вид битрейта: Постоянный
Битрейт: 192 Кбит/сек
Каналы: 2 канала
Частота: 48,0 КГц
Метод сжатия: С потерями
Размер потока: 59,4 Мбайт (11%)
Выравнивание: Соединение по промежуткам
Продолжительность промежутка: 24мс. (0,60 видеокадр)
Библиотека кодирования: LAME3.98.4
~~~~~~~~~~~~~~~~~~~~~~~~~~~~~~~~~~~~~~~~~~~~~~~~~~~~~~~~~~~
Общее
Полное имя: D:\Downloads\Суперняня\Семья Воронцовых.avi
Формат: AVI
Формат/Информация: Audio Video Interleave
Размер файла: 512 Мбайт
Продолжительность: 42 м.
Общий поток: 1703 Кбит/сек
Программа кодирования: Lavf52.94.0

Видео
Идентификатор: 0
Формат: xvid
Идентификатор кодека: xvid
Продолжительность: 42 м.
Битрейт: 1498 Кбит/сек
Ширина: 720 пикс.
Высота: 544 пикс.
Соотношение сторон: 4:3
Частота кадров: 25,000 кадр/сек
Бит/(Пиксели*Кадры): 0.153
Размер потока: 451 Мбайт (88%)

Аудио
Идентификатор: 1
Формат: MPEG Audio
Версия формата: Version 1
Профиль формата: Layer 3
Режим: Joint stereo
Расширение режима: MS Stereo
Идентификатор кодека: 55
Идентификатор кодека/Подсказка: MP3
Продолжительность: 42 м.
Вид битрейта: Постоянный
Битрейт: 192 Кбит/сек
Каналы: 2 канала
Частота: 48,0 КГц
Метод сжатия: С потерями
Размер потока: 57,8 Мбайт (11%)
Выравнивание: Соединение по промежуткам
Продолжительность промежутка: 24мс. (0,60 видеокадр)
Библиотека кодирования: LAMEЄЄ
~~~~~~~~~~~~~~~~~~~~~~~~~~~~~~~~~~~~~~~~~~~~~~~~~~~~~~~~~~~~~
Общее
Полное имя: D:\Downloads\Суперняня\Семья Генкиных.avi
Формат: AVI
Формат/Информация: Audio Video Interleave
Размер файла: 525 Мбайт
Продолжительность: 43 м.
Общий поток: 1704 Кбит/сек
Программа кодирования: Lavf52.94.0

Видео
Идентификатор: 0
Формат: xvid
Идентификатор кодека: xvid
Продолжительность: 43 м.
Битрейт: 1499 Кбит/сек
Ширина: 720 пикс.
Высота: 544 пикс.
Соотношение сторон: 4:3
Частота кадров: 25,000 кадр/сек
Бит/(Пиксели*Кадры): 0.153
Размер потока: 462 Мбайт (88%)

Аудио
Идентификатор: 1
Формат: MPEG Audio
Версия формата: Version 1
Профиль формата: Layer 3
Режим: Joint stereo
Расширение режима: MS Stereo
Идентификатор кодека: 55
Идентификатор кодека/Подсказка: MP3
Продолжительность: 43 м.
Вид битрейта: Постоянный
Битрейт: 192 Кбит/сек
Каналы: 2 канала
Частота: 48,0 КГц
Метод сжатия: С потерями
Размер потока: 59,2 Мбайт (11%)
Выравнивание: Соединение по промежуткам
Продолжительность промежутка: 24мс. (0,60 видеокадр)
Библиотека кодирования: LAME3.98.4ЄЄЄЄЄЄЄЄЄЄ
~~~~~~~~~~~~~~~~~~~~~~~~~~~~~~~~~~~~~~~~~~~~~~~~~~~~~~~~~
Общее
Полное имя: D:\Downloads\Суперняня\Семья Матвеевых.avi
Формат: AVI
Формат/Информация: Audio Video Interleave
Размер файла: 529 Мбайт
Продолжительность: 43 м.
Общий поток: 1703 Кбит/сек
Программа кодирования: Lavf52.94.0

Видео
Идентификатор: 0
Формат: xvid
Идентификатор кодека: xvid
Продолжительность: 43 м.
Битрейт: 1498 Кбит/сек
Ширина: 720 пикс.
Высота: 544 пикс.
Соотношение сторон: 4:3
Частота кадров: 25,000 кадр/сек
Бит/(Пиксели*Кадры): 0.153
Размер потока: 465 Мбайт (88%)

Аудио
Идентификатор: 1
Формат: MPEG Audio
Версия формата: Version 1
Профиль формата: Layer 3
Режим: Joint stereo
Расширение режима: MS Stereo
Идентификатор кодека: 55
Идентификатор кодека/Подсказка: MP3
Продолжительность: 43 м.
Вид битрейта: Постоянный
Битрейт: 192 Кбит/сек
Каналы: 2 канала
Частота: 48,0 КГц
Метод сжатия: С потерями
Размер потока: 59,7 Мбайт (11%)
Выравнивание: Соединение по промежуткам
Продолжительность промежутка: 24мс. (0,60 видеокадр)
Библиотека кодирования: LAMEЄЄЄЂ
~~~~~~~~~~~~~~~~~~~~~~~~~~~~~~~~~~~~~~~~~~~~~~~~~~~~~~~~~~~~~~~~
Общее
Полное имя: D:\Downloads\Суперняня\Семья Стоумовых.avi
Формат: AVI
Формат/Информация: Audio Video Interleave
Размер файла: 528 Мбайт
Продолжительность: 43 м.
Общий поток: 1703 Кбит/сек
Программа кодирования: Lavf52.94.0

Видео
Идентификатор: 0
Формат: xvid
Идентификатор кодека: xvid
Продолжительность: 43 м.
Битрейт: 1498 Кбит/сек
Ширина: 720 пикс.
Высота: 544 пикс.
Соотношение сторон: 4:3
Частота кадров: 25,000 кадр/сек
Бит/(Пиксели*Кадры): 0.153
Размер потока: 464 Мбайт (88%)

Аудио
Идентификатор: 1
Формат: MPEG Audio
Версия формата: Version 1
Профиль формата: Layer 3
Режим: Joint stereo
Расширение режима: MS Stereo
Идентификатор кодека: 55
Идентификатор кодека/Подсказка: MP3
Продолжительность: 43 м.
Вид битрейта: Постоянный
Битрейт: 192 Кбит/сек
Каналы: 2 канала
Частота: 48,0 КГц
Метод сжатия: С потерями
Размер потока: 59,5 Мбайт (11%)
Выравнивание: Соединение по промежуткам
Продолжительность промежутка: 24мс. (0,60 видеокадр)
Библиотека кодирования: LAME3.98.4
~~~~~~~~~~~~~~~~~~~~~~~~~~~~~~~~~~~~~~~~~~~~~~~~~~~~~~~~~~~~~~
Общее
Полное имя: D:\Downloads\Суперняня\Семья Сысоевых.avi
Формат: AVI
Формат/Информация: Audio Video Interleave
Размер файла: 529 Мбайт
Продолжительность: 43 м.
Общий поток: 1702 Кбит/сек
Программа кодирования: Lavf52.94.0

Видео
Идентификатор: 0
Формат: xvid
Идентификатор кодека: xvid
Продолжительность: 43 м.
Битрейт: 1497 Кбит/сек
Ширина: 720 пикс.
Высота: 544 пикс.
Соотношение сторон: 4:3
Частота кадров: 25,000 кадр/сек
Бит/(Пиксели*Кадры): 0.153
Размер потока: 465 Мбайт (88%)

Аудио
Идентификатор: 1
Формат: MPEG Audio
Версия формата: Version 1
Профиль формата: Layer 3
Режим: Joint stereo
Расширение режима: MS Stereo
Идентификатор кодека: 55
Идентификатор кодека/Подсказка: MP3
Продолжительность: 43 м.
Вид битрейта: Постоянный
Битрейт: 192 Кбит/сек
Каналы: 2 канала
Частота: 48,0 КГц
Метод сжатия: С потерями
Размер потока: 59,6 Мбайт (11%)
Выравнивание: Соединение по промежуткам
Продолжительность промежутка: 24мс. (0,60 видеокадр)
Библиотека кодирования: LAME
~~~~~~~~~~~~~~~~~~~~~~~~~~~~~~~~~~~~~~~~~~~~~~~~~~~~~~~~~~~~
Общее
Полное имя: D:\Downloads\Суперняня\Семья Шахназаровых.avi
Формат: AVI
Формат/Информация: Audio Video Interleave
Размер файла: 527 Мбайт
Продолжительность: 43 м.
Общий поток: 1703 Кбит/сек
Программа кодирования: Lavf52.94.0

Видео
Идентификатор: 0
Формат: xvid
Идентификатор кодека: xvid
Продолжительность: 43 м.
Битрейт: 1498 Кбит/сек
Ширина: 720 пикс.
Высота: 544 пикс.
Соотношение сторон: 4:3
Частота кадров: 25,000 кадр/сек
Бит/(Пиксели*Кадры): 0.153
Размер потока: 464 Мбайт (88%)

Аудио
Идентификатор: 1
Формат: MPEG Audio
Версия формата: Version 1
Профиль формата: Layer 3
Режим: Joint stereo
Расширение режима: MS Stereo
Идентификатор кодека: 55
Идентификатор кодека/Подсказка: MP3
Продолжительность: 43 м.
Вид битрейта: Постоянный
Битрейт: 192 Кбит/сек
Каналы: 2 канала
Частота: 48,0 КГц
Метод сжатия: С потерями
Размер потока: 59,4 Мбайт (11%)
Выравнивание: Соединение по промежуткам
Продолжительность промежутка: 24мс. (0,60 видеокадр)
Библиотека кодирования: LAME3.98.4





Время раздачи: с 23:00 до 07:00, днем по мере возможности
Приятного просмотра!

Постеры

Соцсети

 

Вернуться в Развитие и воспитание детей (0-5 лет)



Кто сейчас на конференции

Сейчас этот форум просматривают: CCBot и гости: 0