Видео


Сообщение

Видео Уроки тетушки Совы | Мои домашние питомцы [2010, DVD5]

Сообщение Таточка » 21 янв 2012, 18:48

Русское название: Уроки тетушки Совы / Мои домашние питомцы
Год выпуска: 2010
Производство: Творческое Объединение "Маски"
Жанр: Детский, Видеоуроки, Развивающий
Режиссер: Анатолий Валевский

Описание фильма: Этот развлекательно-обучающий диск с мультфильмами в простой и доступной форме с помощью сказочных персонажей легко и быстро научит вашего ребенка различать вредные и полезные фантазии! Уроки тетушки Совы полностью займут внимание Вашего малыша. Развлекаясь с героями мультфильмов, ребенок будет одновременно получать полезные знания, необходимые в его еще начинающейся жизни. Диск содержит следующие выпуски:
1. Новые друзья
2. Кошка
3. Черепаха
4. Аквариум
5. Попугай
6. Экзотика
7. Канарейка
8. Хомяк
9. Крыса
10. Террариум
11. Собака

Продолжительность: 00:54:35
Перевод: Русский Оригинальный
Качество видео: DVD5

Видеокодек: MPEG-2
Битрейт видео: 278 Мбит/сек
Размер кадра: 720x576 (16:9), 25,000 кадр/сек
Аудиокодек: AC-3
Битрейт аудио: 192 Кбит/сек
Полное имя: \VIDEO_TS\VTS_02_1.VOB
Формат: MPEG-PS
Размер файла: 1024 Мбайт
Продолжительность: 30 с.
Общий поток: 283 Мбит/сек

Видео
Идентификатор: 224 (0xE0)
Формат: MPEG Video
Версия формата: Version 2
Профиль формата: Main@Main
Параметр BVOP формата: Да
Параметр матрицы формата: По умолчанию
Параметры GOP формата: M=3, N=15
Продолжительность: 30 с.
Вид битрейта: Постоянный
Битрейт: 278 Мбит/сек
Номинальный битрейт: 6000 Кбит/сек
Ширина: 720 пикс.
Высота: 576 пикс.
Соотношение сторон: 16:9
Частота кадров: 25,000 кадр/сек
Стандарт вещания: PAL
Цветовое пространство: YUV
Подвыборка цветности: 4:2:0
Битовая глубина: 8 бит
Тип развёртки: Чересстрочная
Порядок развёртки: Верхнее поле первое
Метод сжатия: С потерями
Бит/(Пиксели*Кадры): 26.774
Размер потока: 1003 Мбайт (98%)

Аудио
Идентификатор: 128 (0x80)
Формат: AC-3
Формат/Информация: Audio Coding 3
Расширение режима: CM (complete main)
Продолжительность: 30 с.
Вид битрейта: Постоянный
Битрейт: 192 Кбит/сек
Канал(ы): 2 канала(ов)
Расположение каналов: Front: L R
Частота: 48,0 КГц
Битовая глубина: 16 бит
Метод сжатия: С потерями
Размер потока: 706 Кбайт (0%)
Скриншоты:

Постеры

Соцсети

 

Вернуться в Развитие и воспитание детей (0-5 лет)



Кто сейчас на конференции

Сейчас этот форум просматривают: YandexBot и гости: 0