Видео

Сообщение

Видео Утренняя зарядка для малышей от 3 до 4 лет (2011) DVDRip

Сообщение Нюша » 16 дек 2012, 20:24

Утренняя зарядка для малышей от 3 до 4 лет (2011) DVDRip

Русское название: Утренняя зарядка для малышей от 3 до 4 лет
Год выпуска: 2011
Производство: Россия, студия SovaFilm
Жанр: Обучающий, Видеоуроки
Режиссер: Игорь Пелинский

Описание фильма:
Все родители мечтают, чтобы их малыш с ранних лет рос здоровым. И в одно прекрасное солнечное утро начинают "приучать" малыша делать зарядку. Что это такое - зарядка? Почему ее надо делать? Как правильно организовать этот процесс? Как же заинтересовать малыша утренней зарядкой и воспитать в ребенке хорошую привычку делать ее регулярно? Очень просто! Надо зарядку превратить в веселую игру! Для этого потребуется немного: заводная детская музыка и ваша фантазия. К тому же, зарядка - идеальная возможность ежедневно, несмотря на занятость, подарить вашему малышу немного заботы и внимания и получить заряд бодрости на весь день. Конечно, вначале большую часть упражнений вы будете делать вместе с малышом. Но не забывайте, что маленькие дети учатся по принципу "делай как я", и если мама или папа с увлечением будут делать упражнения, то в скором времени ребенок сможет самостоятельно выполнять упражнения. Главное помнить три основных принципа:
1. Постепенность (не требуйте от ребенка сразу точного выполнения упражнений, наберитесь терпения).
2. Повторяемость (очень важно повторять одни и те же игры и упражнения на протяжении некоторого отрезка времени).
3. Систематичность (старайтесь заниматься ежедневно) - в этом залог успеха.


Качество видео: DVDRip
Видеокодек: Xvid
Битрейт видео: ~1680 Кбит/с
Размер кадра: 704х400
Аудиокодек: AC3
Битрейт аудио: 192 Кбит/сек
Продолжительность: 01:11:00
Видео
Идентификатор: 0
Формат: MPEG-4 Visual
Профиль формата: Advanced Simple@L5
Параметр BVOP формата: 1
Параметр QPel формата: Нет
Параметр GMC формата: Без точки перехода
Параметр матрицы формата: Default (MPEG)
Идентификатор кодека: XVID
Идентификатор кодека/Подсказка: XviD
Продолжительность: 1 ч. 11 м.
Битрейт: 1522 Кбит/сек
Ширина: 704 пикс.
Высота: 400 пикс.
Соотношение сторон: 16:9
Частота кадров: 25,000 кадр/сек
Цветовое пространство: YUV
Подвыборка цветности: 4:2:0
Битовая глубина: 8 бит
Тип развёртки: Прогрессивная
Метод сжатия: С потерями
Бит/(Пиксели*Кадры): 0.216
Размер потока: 779 Мбайт (88%)
Библиотека кодирования: XviD 1.2.1 (UTC 2008-12-04)

Аудио
Идентификатор: 1
Формат: AC-3
Формат/Информация: Audio Coding 3
Расширение режима: CM (complete main)
Идентификатор кодека: 2000
Продолжительность: 1 ч. 11 м.
Вид битрейта: Постоянный
Битрейт: 192 Кбит/сек
Канал(ы): 2 канала(ов)
Расположение каналов: Front: L R
Частота: 48,0 КГц
Битовая глубина: 16 бит
Метод сжатия: С потерями
Размер потока: 98,2 Мбайт (11%)
Выравнивание: Соединение по промежуткам
Продолжительность промежутка: 40мс. (1,00 видеокадр)
Время предзагрузки промежутка: 512 ms
Скриншоты:


Время раздачи: c 08:00 до 23:00

Постеры

Соцсети

 

Вернуться в Развитие и воспитание детей (0-5 лет)



Кто сейчас на конференции

Сейчас этот форум просматривают: CCBot и гости: 0