Видео


Сообщение

Видео Занимательная арифметика: От 3 до 6 / Math Fun With Ria (2007) DVDRip

Сообщение Нюша » 16 дек 2012, 19:17

Занимательная арифметика: От 3 до 6 / Math Fun With Ria (2007) DVDRip

Русское название: Занимательная арифметика: От 3 до 6
Оригинальное название: Math Fun With Ria
Год выпуска: 2007
Производство: Корея
Жанр: Развивающий, Обучающий

Перевод: Многоголосый закадровый, профессиональный

Описание фильма:
6-ти летняя девочка Риа и ее воображаемые друзья Джори и Тунги проводят занимательные уроки арифметики для дошкольников от 3-х до 6-ти лет.
Продолжительность: 01:45:47

Качество видео: DVDRip

Видеокодек: Xvid
Битрейт видео: ~1712 kb/s
Размер кадра: 672х496
Аудиокодек: MP3 2 ch
Битрейт аудио: 128 kb/s
Формат: AVI
Формат/Информация: Audio Video Interleave
Размер файла: 1,37 Гбайт
Продолжительность: 1 ч. 45 м.
Общий поток: 1850 Кбит/сек
Программа кодирования: VirtualDubMod 1.5.10.2 (build 2540/release)
Библиотека кодирования: VirtualDubMod build 2540/release

Видео
Идентификатор: 0
Формат: MPEG-4 Visual
Профиль формата: Advanced Simple@L5
Параметр BVOP формата: 2
Параметр QPel формата: Нет
Параметр GMC формата: Без точки перехода
Параметр матрицы формата: Default (MPEG)
Режим смешивания: Сжатый битовый поток
Идентификатор кодека: XVID
Идентификатор кодека/Подсказка: XviD
Продолжительность: 1 ч. 45 м.
Битрейт: 1712 Кбит/сек
Ширина: 672 пикселя
Высота: 496 пикселей
Соотношение сторон: 4:3
Частота кадров: 25,000 кадров/сек
Цветовое пространство: YUV
Субдискретизация насыщенности: 4:2:0
Битовая глубина: 8 бит
Тип развёртки: Прогрессивная
Метод сжатия: С потерями
Бит/(Пиксели*Кадры): 0.205
Размер потока: 1,27 Гбайт (93%)
Библиотека кодирования: XviD 1.2.1 (UTC 2008-12-04)

Аудио
Идентификатор: 1
Формат: MPEG Audio
Версия формата: Version 1
Профиль формата: Layer 3
Режим: Joint stereo
Идентификатор кодека: 55
Идентификатор кодека/Подсказка: MP3
Продолжительность: 1 ч. 45 м.
Вид битрейта: Постоянный
Битрейт: 128 Кбит/сек
Каналы: 2 канала
Частота: 48,0 КГц
Метод сжатия: С потерями
Размер потока: 96,8 Мбайт (7%)
Выравнивание: Соединение по промежуткам
Продолжительность промежутка: 40мс. (1,00 видеокадр)
Время предзагрузки промежутка: 504мс.
Скриншоты:


Смотрите так же другие мои раздачи



Время раздачи: с 8:00 до 24:00 до первых 10-ти скачавших, далее по возможности

Постеры

Соцсети

 

Вернуться в Развитие и воспитание детей (0-5 лет)



Кто сейчас на конференции

Сейчас этот форум просматривают: CCBot и гости: 0