Видео

Сообщение

Видео Александрова Н.А. Малашевская Е.А. Классический танец для начинащих [2009, Классический танец, DVDRip, RUS] (Видеоурок)

Сообщение Sid » 03 ноя 2013, 23:24

Александрова Н.А. Малашевская Е.А. Классический танец для начинащих

Страна: Россия
Тематика: Классический танец
Тип раздаваемого материала: Видеоурок
Продолжительность: 00:43:11
Год выпуска: 2009

Язык: Русский
Перевод: Не требуется

Описание: видео для любителей балета. как на мой взгляд, видео весьма неплохое. т.к. моя программа сохраняет все без меню, то я составила список упражнений с указанием времени их начала (это для удобства навигации).
1. позиции ног 00:50
2. позиции рук 01:20
3. plie 01:52
4. battement tendu 04:44
5. battement tendu jete 08:35
6. rond de jambe par terre 12:04
7. battement fondu 17:30
8. rond de jambe en l'air 21:37
9. battement frappe 24:59
10. battement releve lent 27:20
11. battement developpe 29:10
12. grand battement jete 33:02
13. centework battement tendu 34:58
14. centework battement tendu jete 36:36
15. tours 38:25
16. centework battement fondu 38:52
17. centework adagio 39:37
18. allegro (sautes) 40:26
19. pas echappe 41:09
20. assemble 41:46
21. pas jete 42:07
22. sissonne ferme 42:31

структура каждого упражнения: база (схема), более простой уровень, затем более сложный.
на этом трекере есть книга к этому диску.

Качество : DVDRip
Формат: AVI
Видео кодек: XviD
Аудио кодек: MP3
Видео: 640x480 (1.33:1), 25 fps, XviD build 47 ~2048 kbps avg, 0.27 bit/pixel
Аудио: 44.100 kHz, MPEG Layer 3, 2 ch, ~128.00 kbps avg
Отчет MediaInfo
General
Complete name : F:\alexandrova video RuT.avi
Format : AVI
Format/Info : Audio Video Interleave
File size : 676 MiB
Duration : 43mn 11s
Overall bit rate : 2 189 Kbps
Writing application : Lavf52.13.0

Video
ID : 0
Format : xvid
Codec ID : xvid
Duration : 43mn 11s
Bit rate : 2 049 Kbps
Width : 640 pixels
Height : 480 pixels
Display aspect ratio : 4:3
Frame rate : 25.000 fps
Bits/(Pixel*Frame) : 0.267
Stream size : 633 MiB (94%)

Audio
ID : 1
Format : MPEG Audio
Format version : Version 1
Format profile : Layer 3
Mode : Joint stereo
Mode extension : MS Stereo
Codec ID : 55
Codec ID/Hint : MP3
Duration : 43mn 11s
Bit rate mode : Constant
Bit rate : 128 Kbps
Channel(s) : 2 channels
Sampling rate : 44.1 KHz
Compression mode : Lossy
Stream size : 39.5 MiB (6%)
Alignment : Aligned on interleaves
Interleave, duration : 26 ms (0.65 video frame)
Writing library : LAME3.98 (beta)
Скриншоты

Скринлисты

Постеры

Соцсети

 

Вернуться в Учимся танцевать



Кто сейчас на конференции

Сейчас этот форум просматривают: Yahoo! Slurp и гости: 0