Видео

Сообщение

Видео Dances of India: Ancient to Modern with Meera [2006 г., Индийские танцы, DVD5, ENG]

Сообщение Sid » 03 ноя 2013, 23:21

Dances of India: Ancient to Modern with Meera

Год выпуска: 2006
Жанр: Индийские танцы
Продолжительность: 1 час 29 мин.
Язык: Английский

Описание: ANCIENT TO MODERN: Redefining movement, expression, and fitness through the timeless body language of her ancestry, Internationally acclaimed dancer and choreographer, Meera Varma, translates her uniquely passionate vision into this fitness enriched instructional journey! Through the intimate exploration of artistic movement, Meera's in-depth instruction, introduces you to three of the most stylish and popular Indian dances today. Enjoy a complete Yoga warm up, the pageantry and color of "Bollywood Grooves", the explosive energy of "Bhangra Fitness", and the expressive power of "Bharatanatyam," all at your own pace! Also includes the world premier of an exclusive Performance Music Video "Insaniat" as the highlight Bonus Feature! Approx 89 Mins.

Полезные ссылки:
Bellydance: The Art of Toning & Technique with Meera

Качество: DVD5
Формат: DVD Video
Видео кодек: MPEG2
Аудио кодек: PCM и AC-3
Танцевальное резюме: Meera Varma
#77Daughter of international ethnic dancer
Zarina Varma and classical Indian Tabla player
Raj Varma, Meera's musical upbringing has trained her to be an artist since the age of four. Having lived all over the world, at a very young age this Multi-Award Winning Dancer has had the opportunity to perform on a global stage. Her most recent trips abroad include performances and workshops in places such as Paris, Egypt and New Zealand.

During her artistic career, Meera has indulged herself in many different avenues of the arts and entertainment industry including dancing, acting, and modeling. She has appeared in music videos, television commercials, and even starred in movies. Meera's strong media relationships have generated cover and front page news stories, radio coverage and national television exposure, as well as international acclaim.

Meera's creativity as a performer highlights the emotions of rhythm as she reveals the sensuality of her soul. Her stage presence is powerful yet playful, expressing extraordinary style with grace and beauty. She has performed to a vast array of cultural music, ranging from traditional Eastern music to modern Western music. Her style of dancing is unique, focusing on Dances of India, and traditional Egyptian and Cabaret style Belly Dancing, with the natural essence of her East Indian heredity and technique flowing through every performance. Today, this breakthrough young talent carries on the tradition of her ancestor's musical background, and pursues her artistic career before audiences around the world.
Фото


Отчет MediaInfo
General
Complete name : D:\Dances of India - Ancient to Modern with Meera\VIDEO_TS\VTS_01_1.VOB
Format : MPEG-PS
File size : 25.6 MiB
Duration : 47s 747ms
Overall bit rate : 4 494 Kbps

Video
ID : 224 (0xE0)
Format : MPEG Video
Format version : Version 2
Format profile : Main@Main
Format settings, Matrix : Default
Duration : 47s 747ms
Bit rate mode : Variable
Bit rate : 4 124 Kbps
Nominal bit rate : 6 200 Kbps
Width : 720 pixels
Height : 480 pixels
Display aspect ratio : 4:3
Frame rate : 29.970 fps
Standard : NTSC
Colorimetry : 4:2:0
Scan type : Interlaced
Scan order : Bottom Field First
Bits/(Pixel*Frame) : 0.398
Stream size : 23.5 MiB (92%)

Audio
ID : 128 (0x80)
Format : AC-3
Format/Info : Audio Coding 3
Duration : 47s 712ms
Bit rate mode : Constant
Bit rate : 192 Kbps
Channel(s) : 2 channels
Channel positions : L R
Sampling rate : 48.0 KHz
Stream size : 1.09 MiB (4%)




General
Complete name : D:\Dances of India - Ancient to Modern with Meera\VIDEO_TS\VTS_04_1.VOB
Format : MPEG-PS
File size : 704 MiB
Duration : 13mn 48s
Overall bit rate : 7 125 Kbps

Video
ID : 224 (0xE0)
Format : MPEG Video
Format version : Version 2
Format profile : Main@Main
Format settings, Matrix : Default
Duration : 13mn 48s
Bit rate mode : Variable
Bit rate : 5 306 Kbps
Nominal bit rate : 6 200 Kbps
Width : 720 pixels
Height : 480 pixels
Display aspect ratio : 4:3
Frame rate : 29.970 fps
Standard : NTSC
Colorimetry : 4:2:0
Scan type : Interlaced
Scan order : Bottom Field First
Bits/(Pixel*Frame) : 0.512
Stream size : 524 MiB (74%)

Audio
ID : 160 (0xA0)
Format : PCM
Format settings, Endianness : Big
Format settings, Sign : Signed
Muxing mode : DVD-Video
Duration : 13mn 48s
Bit rate mode : Constant
Bit rate : 1 536 Kbps
Channel(s) : 2 channels
Channel positions : Front: L R
Sampling rate : 48.0 KHz
Resolution : 16 bits
Stream size : 152 MiB (22%)
Скриншоты меню

Скриншоты

Постеры

Соцсети

 

Вернуться в Учимся танцевать



Кто сейчас на конференции

Сейчас этот форум просматривают: Yahoo! Slurp и гости: 0