Видео

Сообщение

Видео Electro Dance (Tectonik) от Павла Коваленко 2010 года. (3 часть) / Electro Secrets 2010 / Electro Dance от Shax Teck [2010, танцы, DVDRip, RUS] (Видеоурок)

Сообщение Sid » 03 ноя 2013, 22:57

Electro Dance (Tectonik) от Павла Коваленко 2010 года. (3 часть) / Electro Secrets 2010 / Electro Dance от Shax Teck

Страна: Россия
Тематика: танцы
Тип раздаваемого материала: Видеоурок
Продолжительность: 00:23:03
Год выпуска: 2010

Язык: Русский
Перевод: Не требуется

Описание: Третья серия обучающих уроков от Павла Коваленко.
Есть интересные связки, как для новичков, так и для танцоров с хорошим уровнем подготовки.
3.1 связка "Пасть"
3.2 связка для Новичков
3.3 Элементарная связка на первое занятие
3.4 Квадрат "Мельница"
3.5 Квадрат "Металлика"
3.6 Квадрат для продвинутых (сложный)
3.7 Восьмерка для продвинутых!!!!!!
3.8 Квадрат "биноколь"
3.9 Квадрат "Шнурок"

Доп. информация: Есть хорошие вещи!
http://vkontakte.ru/shaxteck
http://www.youtube.com/user/ShaxTeck

Качество : DVDRip
Формат: WMV
Видео кодек: Windows Media Video 9
Аудио кодек: Windows Media Audio
Видео: 720x576, 4:3, 25.00fps, 1000kbps
Аудио: 44100Hz, stereo, 128kbps
Отчет MediaInfo
General
Complete name : F:\Обучение от Павла Коваленко 3 часть\3.1 Связка Пасть.wmv
Format : Windows Media
File size : 6.11 MiB
Duration : 46s 590ms
Overall bit rate mode : Constant
Overall bit rate : 1 100 Kbps
Maximum Overall bit rate : 1 140 Kbps
Encoded date : UTC 2010-09-30 16:05:11.460
Application : Windows Movie Maker 2.1.4026.0

Video
ID : 2
Format : VC-1
Format profile : MP@ML
Codec ID : WMV3
Codec ID/Info : Windows Media Video 9
Codec ID/Hint : WMV3
Description of the codec : Windows Media Video 9
Duration : 46s 600ms
Bit rate mode : Constant
Bit rate : 1 000 Kbps
Width : 720 pixels
Height : 576 pixels
Display aspect ratio : 5:4
Frame rate : 25.000 fps
Standard : PAL
Bit depth : 8 bits
Scan type : Progressive
Compression mode : Lossy
Bits/(Pixel*Frame) : 0.096
Stream size : 5.56 MiB (91%)
Language : Russian

Audio
ID : 1
Format : WMA
Format version : Version 2
Codec ID : 161
Codec ID/Info : Windows Media Audio
Description of the codec : Windows Media Audio 9.2 - 128 kbps, 44 kHz, stereo (A/V) 1-pass CBR
Duration : 46s 590ms
Bit rate mode : Constant
Bit rate : 128 Kbps
Channel(s) : 2 channels
Sampling rate : 44.1 KHz
Bit depth : 16 bits
Stream size : 728 KiB (12%)
Language : Russian
Скриншоты

Постеры

Соцсети

 

Вернуться в Учимся танцевать



Кто сейчас на конференции

Сейчас этот форум просматривают: CCBot и гости: 0