Видео

Сообщение

Видео Уроки сальса касино от Elder Sanchez / Learn Salsa 2 with Elder Sanchez [2004, Salsa, DVD5, RUS] (Видеоурок)

Сообщение Sid » 03 ноя 2013, 22:48

Уроки сальса касино ч.2 от Elder Sanchez / Learn Salsa 2 with Elder Sanchez

Страна: Great Britain
Тематика: Salsa
Тип раздаваемого материала: Видеоурок
Продолжительность: 01:15:00
Год выпуска: 2004

Язык: Английский
Перевод
: Отсутствует

Язык субтитров: Отсутствует
Описание: После успешного диска ‘Learn Salsa‘, который стал очень популярен, последовали запросы на новые вариации. После этого Elder Sanchez выпустил новый DVD – ‘Learn Salsa 2‘.

В 5 технически продвинутых уроках, которые строятся на том, что было рассмотрено в первом учебном диске ‘Learn Salsa’, лондонский топ-инструктор Elder Sanchez, продемонстрирует вам интересные и захватывающие движения сальсы стиля Casino. Данный DVD позволяет вам наблюдать за каждым движением с трёх камер, под разными углами. Каждый новый урок подаётся со счётом и объяснениями о выполнении представленной вариации. Диск удобен для самостоятельного обучения сальсы.

Качество : DVD5
Формат: DVD video
Видео кодек: MPEG2
Аудио кодек: AC3
Видео: 7 000 Kbps, 25.0 fps, 720*576 (2.35:1), Constant
Аудио: 192 Kbps, 48.0 kHz, stereo, AC3
Отчет MediaInfo
General
Complete name : Learn Salsa 2 with Elder Sanches\VIDEO_TS\VTS_01_1.VOB
Format : MPEG-PS
File size : 1 024 MiB
Duration : 14s 614ms
Overall bit rate : 588 Mbps

Video
ID : 224 (0xE0)
Format : MPEG Video
Format version : Version 2
Format profile : Main@Main
Format settings, BVOP : Yes
Format settings, Matrix : Default
Duration : 14s 614ms
Bit rate mode : Constant
Bit rate : 576 Mbps
Nominal bit rate : 7 000 Kbps
Width : 720 pixels
Height : 576 pixels
Display aspect ratio : 2.35:1
Frame rate : 25.000 fps
Standard : PAL
Color space : YUV
Chroma subsampling : 4:2:0
Bit depth : 8 bits
Scan type : Interlaced
Scan order : Top Field First
Bits/(Pixel*Frame) : 55.546
Stream size : 1 003 MiB (98%)

Audio
ID : 128 (0x80)
Format : AC-3
Format/Info : Audio Coding 3
Mode extension : CM (complete main)
Duration : 14s 318ms
Bit rate mode : Constant
Bit rate : 192 Kbps
Channel(s) : 2 channels
Channel positions : Front: L R
Sampling rate : 48.0 KHz
Bit depth : 16 bits
Stream size : 336 KiB (0%)

Menu
Скриншоты

Постеры

Соцсети

 

Вернуться в Учимся танцевать



Кто сейчас на конференции

Сейчас этот форум просматривают: YandexBot и гости: 0