Сообщение

[creativeLive] Retouching and Creative Photoshop Techniques [2012, ENG]

Сообщение Солнышко » 27 фев 2017, 20:24

Retouching and Creative Photoshop Techniques

Год выпуска: 2012
Производитель: creativeLIVE
Автор: Lindsay Adler
Продолжительность: ~15 ч
Тип раздаваемого материала: Видеоурок
Язык: Английский
Описание: Learn in-depth techniques for retouching images to perfection, helping your clients look their best, and expressing your creative vision! Whether retouching skin, whitening teeth or reshaping body features, Photoshop allows you to perfect reality as well as express your creative vision. In this workshop portrait and fashion photographer Lindsay Adler will cover essential retouching techniques and teach how Photoshop allows you to make the impossible possible! Lindsay will cover countless creative Photoshop techniques: creating porcelain skin, changing colors, displacement maps, adding textures, adding makeup in Photoshop, quick retouching plugins, and dozens of other techniques you can apply to your own photography.

Let Photoshop become your next realm of creative expression through this workshop. Lindsay will also include a couple live shoots and live retouches so you can see an image start to finish and learn the nuances between a portrait, beauty or avant garde retouch.
00:02:53
Day 1 Pre-Show Banter
00:55:07
Essential Retouching Techniques
00:25:32
Intro Q&A
01:10:39
Portrait Retouching
00:25:38
Body Shaping: Liquify
01:04:41
Beauty Retouching
00:41:32
Shoot: Portrait, Beauty, and Avant Garde
00:03:53
Day 1 Wrap-Up
00:04:12
Day 2 Pre-Show Banter
00:24:16
Workflow and Lightroom
00:40:09
Beauty Image Retouch Review
00:15:40
Portrait Recap and Frequency Separation
00:25:20
Frequency Separation Q&A
00:14:42
Creative Techniques: Color
00:11:34
Blend Modes
00:08:13
Miscellaneous Creative Techniques
00:13:12
Faux HDR Look
00:23:25
Avant Garde Retouch
00:35:12
Displacement Maps
00:17:17
Audience Image Retouching
00:25:00
Special Shoot: Halloween
Pre-Show Banter
Compositing Basics
Compositing Examples
Creative Skin Effects
Additional Creative Techniques
Retouching Dark Skin and Q&A
Common Problems
Perfect Mask Plug-in
Audience Image Retouching
Sharpener Pro and Color Efex Plug-ins
Thanks + Credits
Cinemagraphs
Day 3 Wrap-Up
Файлы примеров: отсутствуют
Формат видео: wmv, flv
Общее
Полное имя CreativeLive - Lindsay Adler - Retouching and Creative Photoshop Techniques - Day 1.wmv
Формат : Windows Media
Размер файла : 1,60 Гбайт
Продолжительность : 5 ч. 22 м.
Режим общего битрейта : Постоянный
Общий поток : 713 Кбит/сек
Максимальный общий битрейт : 806 Кбит/сек
Дата кодирования : UTC 2012-10-30 22:49:27.391

Видео
Идентификатор : 2
Формат : VC-1
Профиль формата : MP
Идентификатор кодека : WMV3
Идентификатор кодека/Информация : Windows Media Video 9
Идентификатор кодека/Подсказка : WMV3
Описание кодека : Windows Media Video 9
Продолжительность : 5 ч. 22 м.
Битрейт : 700 Кбит/сек
Ширина : 944 пикселя
Высота : 528 пикселей
Соотношение сторон : 16:9
Частота кадров : 25,000 кадров/сек
Битовая глубина : 8 бит
Тип развёртки : Прогрессивная
Метод сжатия : С потерями
Бит/(Пиксели*Кадры) : 0.056
Размер потока : 1,58 Гбайт (98%)
Язык : English (US)

Аудио
Идентификатор : 1
Формат : WMA
Версия формата : Version 2
Идентификатор кодека : 161
Идентификатор кодека/Информация : Windows Media Audio
Описание кодека : Windows Media Audio 9.2 - 96 kbps, 44 kHz, stereo 1-pass CBR
Продолжительность : 5 ч. 22 м.
Вид битрейта : Постоянный
Битрейт : 96,0 Кбит/сек
Каналы : 2 канала
Частота : 44,1 КГц
Битовая глубина : 16 бит
Размер потока : 221 Мбайт (13%)
Язык : English (US)

Общее
Полное имя CreativeLive - Lindsay Adler - Retouching and Creative Photoshop Techniques - Day 2.wmv
Формат : Windows Media
Размер файла : 1,51 Гбайт
Продолжительность : 4 ч. 31 м.
Режим общего битрейта : Постоянный
Общий поток : 798 Кбит/сек
Максимальный общий битрейт : 806 Кбит/сек
Дата кодирования : UTC 2012-10-31 22:52:43.337

Видео
Идентификатор : 2
Формат : VC-1
Профиль формата : MP
Идентификатор кодека : WMV3
Идентификатор кодека/Информация : Windows Media Video 9
Идентификатор кодека/Подсказка : WMV3
Описание кодека : Windows Media Video 9
Продолжительность : 4 ч. 31 м.
Битрейт : 700 Кбит/сек
Ширина : 944 пикселя
Высота : 528 пикселей
Соотношение сторон : 16:9
Частота кадров : 25,000 кадров/сек
Битовая глубина : 8 бит
Тип развёртки : Прогрессивная
Метод сжатия : С потерями
Бит/(Пиксели*Кадры) : 0.056
Размер потока : 1,33 Гбайт (88%)
Язык : English (US)

Аудио
Идентификатор : 1
Формат : WMA
Версия формата : Version 2
Идентификатор кодека : 161
Идентификатор кодека/Информация : Windows Media Audio
Описание кодека : Windows Media Audio 9.2 - 96 kbps, 44 kHz, stereo 1-pass CBR
Продолжительность : 4 ч. 31 м.
Вид битрейта : Постоянный
Битрейт : 96,0 Кбит/сек
Каналы : 2 канала
Частота : 44,1 КГц
Битовая глубина : 16 бит
Размер потока : 186 Мбайт (12%)
Язык : English (US)

Общее
Полное имя CreativeLive - Lindsay Adler - Retouching and Creative Photoshop Techniques - Day 3.wmv
Формат : Windows Media
Размер файла : 1,78 Гбайт
Продолжительность : 5 ч. 18 м.
Режим общего битрейта : Постоянный
Общий поток : 798 Кбит/сек
Максимальный общий битрейт : 806 Кбит/сек
Дата кодирования : UTC 2012-11-01 22:43:40.261

Видео
Идентификатор : 2
Формат : VC-1
Профиль формата : MP
Идентификатор кодека : WMV3
Идентификатор кодека/Информация : Windows Media Video 9
Идентификатор кодека/Подсказка : WMV3
Описание кодека : Windows Media Video 9
Продолжительность : 5 ч. 18 м.
Битрейт : 700 Кбит/сек
Ширина : 944 пикселя
Высота : 528 пикселей
Соотношение сторон : 16:9
Частота кадров : 25,000 кадров/сек
Битовая глубина : 8 бит
Тип развёртки : Прогрессивная
Метод сжатия : С потерями
Бит/(Пиксели*Кадры) : 0.056
Размер потока : 1,56 Гбайт (88%)
Язык : English (US)

Аудио
Идентификатор : 1
Формат : WMA
Версия формата : Version 2
Идентификатор кодека : 161
Идентификатор кодека/Информация : Windows Media Audio
Описание кодека : Windows Media Audio 9.2 - 96 kbps, 44 kHz, stereo 1-pass CBR
Продолжительность : 5 ч. 18 м.
Вид битрейта : Постоянный
Битрейт : 96,0 Кбит/сек
Каналы : 2 канала
Частота : 44,1 КГц
Битовая глубина : 16 бит
Размер потока : 219 Мбайт (12%)
Язык : English (US)

Общее
Полное имя Lindsay Adler - Retouching and Creative Photoshop Techniques - Bonus Haloween Shoot.flv
Формат : Flash Video
Размер файла : 193 Мбайт
Продолжительность : 30 м.
Общий поток : 877 Кбит/сек
Пометившая программа : Moyea FLV Lib

Видео
Формат : AVC
Формат/Информация : Advanced Video Codec
Профиль формата : Main@L3.1
Параметр CABAC формата : Да
Параметр ReFrames формата : 3 кадра
Идентификатор кодека : 7
Продолжительность : 30 м.
Вид битрейта : Постоянный
Битрейт : 768 Кбит/сек
Ширина : 960 пикселей
Высота : 540 пикселей
Соотношение сторон : 16:9
Режим частоты кадров : Постоянный
Частота кадров : 30,000 кадров/сек
Частота кадров в оригинале : 29,970 кадров/сек
Стандарт вещания : NTSC
Цветовое пространство : YUV
Субдискретизация насыщенности : 4:2:0
Битовая глубина : 8 бит
Тип развёртки : Прогрессивная
Бит/(Пиксели*Кадры) : 0.049
Размер потока : 169 Мбайт (88%)

Аудио
Формат : AAC
Формат/Информация : Advanced Audio Codec
Профиль формата : LC
Идентификатор кодека : 10
Продолжительность : 30 м.
Битрейт : 96,0 Кбит/сек
Каналы : 1 канал
Расположение каналов : Front: C
Частота : 44,1 КГц
Метод сжатия : С потерями
Размер потока : 21,1 Мбайт (11%)



Постеры

Соцсети

 

Статистика

Автор: Солнышко
Добавлен: 27 фев 2017, 20:24
Размер: 5.08 ГБ
Размер: 5 455 869 125 байт
Сидеров: 9
Личеров: 3
Скачали: 1
Здоровье: 100%
Раздающих: 100%
Скорость скачивания: 0 байт/сек
Скорость раздачи: 0 байт/сек
Последний сидер: 1 месяц 26 дней 11 часов 7 минут 25 секунд назад
Последний личер: 1 месяц 26 дней 11 часов 7 минут 25 секунд назад
Приватный: Нет (DHT включён)
Скачать торрент
Скачать торрент
[ Размер 26.34 КБ / Просмотров 2 ]

Поделиться


  • Похожие торренты
    Ответы
    Просмотры
    Последнее сообщение

Вернуться в Adobe Photoshop