Сообщение

[Retutpro] [Udemy] Advanced Beauty Retouching (Photoshop CS6) [2013, ENG]

Сообщение Солнышко » 28 фев 2017, 01:55

[Udemy] Advanced Beauty Retouching (Photoshop CS6)

Год выпуска: 2013
Производитель: Retutpro
Сайт производителя: https://www.udemy.com/beauty-retouching-training/?sl=E0IacldTQxMALBoeCRAcKBM3D
Продолжительность: 2:00:00+
Тип раздаваемого материала: Видеоурок
Язык: Английский

Описание: (ENG) In this Beauty Retouching Course, I will show you my complete retouching workflow from A to Z. We will cover, over 90 mintues of pure beauty retouching, in 7 chapters and 22 Video Lessons. I will convey the basic knowledge of beauty retouching in the first chapters. Continuing with advanced skin retouching techniques, light control, dodge & burn, visual make-up and final touch-ups, which are displayed in the last chapters.

Формат видео: MP4
Видео: MP4 | AVC | 429 Kbps | 1280 x 720 | 30 fps
Аудио: AAC @ 59.8 Kbps 2 channels 44.1 KHz
Preparations - Raw Conversions | Double raw conversions | Workflow & help layers " Notes " | Working with layers and groups
Basic retouching - Facial Expression - Optimizing " Liquifying tool " | Retouching tools - Healing & Cloning tools | Basic - skin retouching techniques | Retouching Fine tune " Hair & Eyes "
Skin Retouching - Advanced skin retouching part 1 & 2 | Applying new skin | Working with - Creative filters and masks | Working with - Adjustment layers
Painting with light - Working with dodge & burn tools | Working with dodge & burn techniques | Skin Corrections & Fine tune
Virtual Make-up - Lighten up eyes | Applying make-up | Applying lipgloss
Final Touch-up - Beauty effect with creative filters | High key effect with Extra Plugins | Final touchup & Control
General
Format : MPEG-4
Format profile : Base Media
Codec ID : isom
File size : 30.9 MiB
Duration : 8mn 47s
Overall bit rate mode : Variable
Overall bit rate : 491 Kbps
Movie name : 02.01 - Image Map and RAW
Album : Advanced Beauty Retouching
Performer : Chris Alvanas
Genre : Video-Training
Encoded date : UTC 2012-10-22 14:21:16
Tagged date : UTC 2012-10-22 14:21:16
Cover : Yes
tvsh : Advanced Beauty Retouching
Video #1
ID : 1
Format : AVC
Format/Info : Advanced Video Codec
Format profile : Baseline@L3.1
Format settings, CABAC : No
Format settings, ReFrames : 3 frames
Codec ID : avc1
Codec ID/Info : Advanced Video Coding
Duration : 8mn 47s
Bit rate : 429 Kbps
Maximum bit rate : 2 665 Kbps
Width : 1 280 pixels
Height : 720 pixels
Display aspect ratio : 16:9
Frame rate mode : Constant
Frame rate : 30.000 fps
Color space : YUV
Chroma subsampling : 4:2:0
Bit depth : 8 bits
Scan type : Progressive
Bits/(Pixel*Frame) : 0.016
Stream size : 27.0 MiB (87%)
Writing library : Zencoder Video Encoding System
Encoded date : UTC 2012-10-22 14:20:16
Tagged date : UTC 2012-10-22 14:21:16
Audio #2
ID : 2
Format : AAC
Format/Info : Advanced Audio Codec
Format profile : LC
Codec ID : 40
Duration : 8mn 47s
Bit rate mode : Variable
Bit rate : 59.8 Kbps
Maximum bit rate : 66.8 Kbps
Channel(s) : 2 channels
Channel positions : Front: L R
Sampling rate : 44.1 KHz
Compression mode : Lossy
Stream size : 3.76 MiB (12%)
Encoded date : UTC 2012-10-22 14:21:16
Tagged date : UTC 2012-10-22 14:21:16

Постеры

Соцсети

 

Статистика

Автор: Солнышко
Добавлен: 28 фев 2017, 01:55
Размер: 783.79 МБ
Размер: 821 859 612 байт
Сидеров: 0
Личеров: 0
Скачали: 0
Здоровье: 0%
Скорость скачивания: 0 байт/сек
Скорость раздачи: 0 байт/сек
Последний сидер: Нет
Последний личер: Нет
Приватный: Нет (DHT включён)
Скачать торрент
Скачать торрент
[ Размер 20.71 КБ / Просмотров 0 ]

Поделиться


  • Похожие торренты
    Ответы
    Просмотры
    Последнее сообщение

Вернуться в Adobe Photoshop