Сообщение

creativeLIVE - Defining your Style with John Keatley [2013, Фото, видео, WEBRip, ENG] (Видеоурок)

Сообщение Солнышко » 01 мар 2017, 01:25

creativeLIVE - Defining your Style with John Keatley

Страна: USA
Тематика: Фото, видео
Тип раздаваемого материала: Видеоурок
Продолжительность: 01:27:51
Год выпуска: 2013

Язык: Английский
Перевод: Отсутствует

Описание: Джон будет говорить с собственным опытом, и показать вам, как стратегически включить ваш стиль как вы строите свой портфеля и клиентской базы.

http://www.creativelive.com/courses/defining-your-style-john-keatley
D:\Downloads (Torrent)\John_Keatley_-_Defining_your_Style\John Keatley - Defining your Style.flv
General
Complete name : D:\Downloads (Torrent)\John_Keatley_-_Defining_your_Style\John Keatley - Defining your Style.flv
Format : Flash Video
File size : 632 MiB
Duration : 1h 27mn
Overall bit rate : 1 006 Kbps
Tagging application : Moyea FLV Lib
Video
Format : AVC
Format/Info : Advanced Video Codec
Format profile : Main@L3.1
Format settings, CABAC : Yes
Format settings, ReFrames : 1 frame
Format settings, GOP : M=1, N=25
Codec ID : 7
Duration : 1h 27mn
Bit rate : 857 Kbps
Width : 854 pixels
Height : 480 pixels
Display aspect ratio : 16:9
Frame rate mode : Constant
Frame rate : 30.000 fps
Color space : YUV
Chroma subsampling : 4:2:0
Bit depth : 8 bits
Scan type : Progressive
Bits/(Pixel*Frame) : 0.070
Stream size : 539 MiB (85%)
Audio
Format : AAC
Format/Info : Advanced Audio Codec
Format profile : LC
Codec ID : 10
Duration : 1h 27mn
Bit rate : 125 Kbps
Channel(s) : 2 channels
Channel positions : Front: L R
Sampling rate : 44.1 KHz
Compression mode : Lossy
Delay relative to video : 1h 24mn
Stream size : 78.5 MiB (12%)

Постеры

Соцсети

 

Статистика

Автор: Солнышко
Добавлен: 01 мар 2017, 01:25
Размер: 632.12 МБ
Размер: 662 830 049 байт
Сидеров: 0
Личеров: 1
Скачали: 0
Здоровье: ???%
Скорость скачивания: 0 байт/сек
Скорость раздачи: 0 байт/сек
Последний сидер: Нет
Последний личер: 15 дней 1 час 28 минут 15 секунд назад
Приватный: Нет (DHT включён)
Скачать торрент
Скачать торрент
[ Размер 12.91 КБ / Просмотров 0 ]

Поделиться


  • Похожие торренты
    Ответы
    Просмотры
    Последнее сообщение

Вернуться в Adobe Photoshop