Сообщение

Павел Гуров | Цикл курсов Маркетинг в соц. сетях для фотографа (2016) CamRip [H.264/1080p]

Сообщение Nik » 26 авг 2017, 17:07

Павел Гуров | Цикл курсов Маркетинг в соц. сетях для фотографа (2016) CamRip [H.264/1080p]

Автор (режиссер): Павел Гуров
Производство: amlab.me
Жанр: Продвижение фото, реклама

Описание:
Маркетинг в социальных сетях для фотографов, как привлечь клиентов через соц. сети.

Продолжительность: 08:10:40
Качество видео: CamRip

Видео: AVC/H.264, 1920x1080, ~2753 kb/s
Аудио: AAC, 2 ch, 256 kb/s, VBR
Код: Выделить всё
General
Complete name               : Павел Гуров - Цикл курсов Маркетинг в соц. сетях для фотографа (2016)\01 - Основы SMM\01 - SMM с Павлом Гуровым..MP4
Format                      : MPEG-4
Format profile              : Base Media / Version 2
Codec ID                    : mp42 (mp42/mp41/isom/avc1)
File size                   : 118 MiB
Duration                    : 5 min
Overall bit rate mode       : Variable
Overall bit rate            : 3 012 kb/s
Encoded date                : UTC 2016-06-15 11:02:35
Tagged date                 : UTC 2016-06-15 11:02:35

Video
ID                          : 1
Format                      : AVC
Format/Info                 : Advanced Video Codec
Format profile              : High@L4
Format settings, CABAC      : Yes
Format settings, ReFrames   : 4 frames
Codec ID                    : avc1
Codec ID/Info               : Advanced Video Coding
Duration                    : 5 min
Bit rate                    : 2 753 kb/s
Width                       : 1 920 pixels
Height                      : 1 080 pixels
Display aspect ratio        : 16:9
Frame rate mode             : Constant
Frame rate                  : 25.000 FPS
Color space                 : YUV
Chroma subsampling          : 4:2:0
Bit depth                   : 8 bits
Scan type                   : Progressive
Bits/(Pixel*Frame)          : 0.053
Stream size                 : 108 MiB (91%)
Writing library             : x264 core 148 r11 3b70645
Encoding settings           : cabac=1 / ref=4 / deblock=1:0:0 / analyse=0x3:0x113 / me=umh / subme=8 / psy=1 / psy_rd=1.00:0.00 / mixed_ref=1 / me_range=16 / chroma_me=1 / trellis=1 / 8x8dct=1 / cqm=0 / deadzone=21,11 / fast_pskip=1 / chroma_qp_offset=-2 / threads=34 / lookahead_threads=5 / sliced_threads=0 / nr=0 / decimate=1 / interlaced=0 / bluray_compat=0 / stitchable=1 / constrained_intra=0 / bframes=3 / b_pyramid=2 / b_adapt=2 / b_bias=0 / direct=3 / weightb=1 / open_gop=0 / weightp=2 / keyint=infinite / keyint_min=25 / scenecut=40 / intra_refresh=0 / rc_lookahead=50 / rc=crf / mbtree=1 / crf=20.0 / qcomp=0.60 / qpmin=5 / qpmax=69 / qpstep=4 / vbv_maxrate=4950 / vbv_bufsize=13500 / crf_max=0.0 / nal_hrd=none / filler=0 / ip_ratio=1.40 / aq=1:1.00
Encoded date                : UTC 2016-06-15 11:02:35
Tagged date                 : UTC 2016-06-15 11:02:35
Color range                 : Limited
Color primaries             : BT.709
Transfer characteristics    : BT.709
Matrix coefficients         : BT.709

Audio
ID                          : 2
Format                      : AAC
Format/Info                 : Advanced Audio Codec
Format profile              : LC
Codec ID                    : 40
Duration                    : 5 min
Bit rate mode               : Variable
Bit rate                    : 256 kb/s
Channel(s)                  : 2 channels
Channel positions           : Front: L R
Sampling rate               : 48.0 kHz
Frame rate                  : 46.875 FPS (1024 spf)
Compression mode            : Lossy
Stream size                 : 10.0 MiB (8%)
Encoded date                : UTC 2016-06-15 11:02:35
Tagged date                 : UTC 2016-06-15 11:02:35

Скриншоты:



Время раздачи: С 10:00 до 00:00 (до появления первых 3-5 скачавших)

Mediapartners-Google - Лучшая благодарность поделиться ссылкой с друзьями в соц. сетях

Постеры

Соцсети

 

Статистика

Автор: Nik
Добавлен: 26 авг 2017, 17:07
Размер: 9.64 ГБ
Размер: 10 353 115 643 байт
Сидеров: 10
Личеров: 3
Скачали: 2
Здоровье: 100%
Раздающих: 100%
Статус:
Скорость скачивания: 0 байт/сек
Скорость раздачи: 0 байт/сек
Последний сидер: 1 день 21 час 16 минут 34 секунды назад
Последний личер: 12 дней 7 часов 51 минуту 19 секунд назад
Приватный: Нет (DHT включён)
Мультимедиа Скачать торрент
Скачать торрент
[ Размер 57.43 КБ / Просмотров 8 ]

Поделиться


  • Похожие торренты
    Ответы
    Просмотры
    Последнее сообщение

Вернуться в Мультимедиа