Сообщение

Григорий-Азиз | Фишки Ворда и Экселя [Word and Excel] (2017) PCRec [H.264]

Сообщение Stepan » 06 ноя 2017, 09:32

Григорий-Азиз | Фишки Ворда и Экселя [Word and Excel] (2017) PCRec [H.264]

Автор (режиссер): Григорий-Азиз
Жанр: Видеокурс

Описание:
Для кого этот курс!
В первую очередь настоятельно рекомендую данный курс школьникам и студентам. Как говорится, must have. Вы сильно облегчите себе жизнь. Также курс пригодится писателям, журналистам, блогерам, которые работают с вордом. Ну и всем, кто хочет повысить эффективность.

Мой опыт!
Я работал в ворде и экселе в школе около 5 лет и 6 лет в универе. И все это время я думал, что я профи. Но оказалось совсем не так. Только в конце этих 11 лет я более менее разобрался с базовыми инструментами!!! А ведь все эти 10-11 лет я работал крайне неэффективно. Тратил ужасно много времени на ненужные операции, терял документы, занимался глупой бесполезной рутиной. В общем, я хочу, чтобы вы не повторяли моих ошибок.

Девиз курса!
Минимум рутины. Максимум работы над содержанием. Поручи рутину ворду.

На что сделан упор!
Упор сделан на те операции, которые занимают больше всего времени и сил. Применив техники курса, вы получите колоссальный эффект.

Продолжительность: 07:41:27
Качество видео: PCRec

Видео: AVC/H.264, 1366x768, ~758kbps
Аудио: AAC, 1 ch, 96 Kbps
Код: Выделить всё
General
Complete name                  : D:\Торренты\WordExcel\!ВОРД\Фишка 1 Обзор, разные фишки\Обзорный..mp4
Format                         : MPEG-4
Format profile                 : Base Media / Version 2
Codec ID                       : mp42 (mp41/isom)
File size                      : 250 MiB
Duration                       : 40 min 39 s
Overall bit rate               : 858 kb/s

Video
ID                             : 1
Format                         : AVC
Format/Info                    : Advanced Video Codec
Format profile                 : Baseline@L4
Format settings                : 1 Ref Frames
Format settings, CABAC         : No
Format settings, RefFrames     : 1 frame
Format settings, GOP           : M=1, N=5
Codec ID                       : avc1
Codec ID/Info                  : Advanced Video Coding
Duration                       : 40 min 39 s
Source duration                : 40 min 38 s
Bit rate                       : 758 kb/s
Width                          : 1 366 pixels
Height                         : 768 pixels
Display aspect ratio           : 16:9
Frame rate                     : 9.984 FPS
Color space                    : YUV
Chroma subsampling             : 4:2:0
Bit depth                      : 8 bits
Scan type                      : Progressive
Bits/(Pixel*Frame)             : 0.072
Stream size                    : 220 MiB (88%)
Source stream size             : 220 MiB (88%)
mdhd_Duration                  : 2438854

Audio
ID                             : 2
Format                         : AAC
Format/Info                    : Advanced Audio Codec
Format profile                 : LC
Codec ID                       : mp4a-40-2
Duration                       : 40 min 39 s
Bit rate mode                  : Constant
Bit rate                       : 96.0 kb/s
Channel(s)                     : 1 channel
Channel positions              : Front: C
Sampling rate                  : 44.1 kHz
Frame rate                     : 43.066 FPS (1024 SPF)
Compression mode               : Lossy
Stream size                    : 28.3 MiB (11%)
Список уроков по Ворду.
Обзорный урок. Огромное количество разных фишек, облегчающих работу.
Организация работы с файлами. Как не потерять свои данные и быть уверенным в их сохранности. Версионность.
Как правильно делать заголовки!!! Многие делают это неправильно и теряют кучу времени.
Создаем начальный шаблон и настраиваем его под себя.
Работаем со стилями. +1000% прирост к вашей эффективности.
Создаем дополнительные шаблоны.
Профессионально создаем оглавление. Ох, если бы мне знать об этом раньше...
Автонумерация заголовков.
Правильно делаем переносы.
Работа с картинками. Вы узнаете массу возможностей по редактированию фоток прямо в ворде.
Работаем с символами. Быстрая и эффективная вставка. Вы полюбите символы)
Поиск и замена. Мы найдем все, что угодно. И заменим на что угодно. Регулярный поиск.
Создадим крутую блок-схему прямо в ворде.
Научимся создавать интерактивный pdf-документ прямо в ворде.
Эффективная работа с разными частями документа.

Список уроков по Экселю.
Обзорный урок. Большое количество разных фишек, облегчающих работу.
Работаем с формулами. Быстрая простановка констант. Таблица умножения за 2 секунды.
Продвинутые таблицы. Да, да!! В самом экселе можно создавать продвинутые таблицы, с шикарным набором функций.
Выбор целей. В данном уроке будет рассмотрена технология выбора чего бы то ни было. Очень рекомендую пользоваться по жизни.
Поработаем с графиками. Вложил в урок весь свой опыт и описал проблемы, с которыми можно столкнуться. Урок больше для технарей. Графики X-Y
Генерация почтовых ящиков и паролей. Рассмотрим все необходимые функции. Вы сможете генерировать различный контент прямо в экселе.
Быстрый доступ к часто используемым функциям.

Бонусы:

БОНУС 1 Макрос прокрутки
Без этого макроса я не представляю себе работу за ПК. Простой, но крайне эффективный. Вы его полюбите.

БОНУС 2 Лучший, на мой взгляд, PDF-reader.
Очень удобная программа для работы с pdf-файлами. Рассмотрим основной функционал и фишки.

БОНУС 3 Профессиональная смена раскладки.
Подробный разбор программы для смены раскладки. Вы забудете о проблеме со сменой языка. +разные фишки.

БОНУС 4 Продвинутый блокнот.
Если вы для бытовых нужд пользуетесь стандартным блокнотом Windows, то данная программа вас очень порадует. Одновременная работа с множеством файлов, закладки, быстрый поиск, поиск по папкам, макросы, сравнение документов и многое другое.

БОНУС 5 Супер программа для хранения баз знаний, заметок, текстов и любой другой информации.
Нет, это не Evernote и даже не Google Keep. Это малоизвестная программа от человека, который разрабатывает ее совершенно бесплатно.
Кроссплатформенность, иерархия веток, встроенный WYSIWYG редактор, очень удобные теги, поиск по разным параметрам, автоматическое сохранение (нет кнопки сохранить), история просмотренных заметок, шифрование. Для меня - это лучшая программа для данных целей. И этот текст я набираю в ней.

Скриншоты:



Время раздачи: 24/7 (круглосуточно) (до появления первых 3-5 скачавших)

Постеры

Соцсети

 

Статистика

Автор: Stepan
Добавлен: 06 ноя 2017, 09:32
Размер: 2.5 ГБ
Размер: 2 688 707 440 байт
Сидеров: 0
Личеров: 0
Скачали: 0
Здоровье: 0%
Статус:
Скорость скачивания: 0 байт/сек
Скорость раздачи: 0 байт/сек
Последний сидер: Нет
Последний личер: Нет
Приватный: Нет (DHT включён)
Скачать торрент
Скачать торрент
[ Размер 20.39 КБ / Просмотров 2 ]

Поделиться


  • Похожие торренты
    Ответы
    Просмотры
    Последнее сообщение

Вернуться в Разное (Компьютер)