Видео


Сообщение

Видео Video guides to Hacking [ENG, 2008 г.]

Сообщение master » 01 фев 2012, 23:21

Video guides to Hacking (ENG)
Год выпуска: 2008
Язык: английский
Описание: Video guides to Hacking
Производител: http://www.crackingislife.com
This is a whole set of 58 videos showing how to hack!
Thanks to the makers for their time and effort.You all are awesome.
Please use this videos only for study and research purposes. Don't harm anyone.
=======================================================================
Содержание
Part 1
Siffing Remote Router Traffic via GRE Tunnels (Hi-Res)
How to decrypt SSL encrypted traffic using a man in the middle attack (Auditor)
Buffer Overflows Pt. 3 by IDESpinner
128 Bit WEP Cracking with Injection!
Buffer Overflows Pt. 2 by IDEspinner
Basic NMAP Usage!
Adding Modules to a Slax or Backtrack Live CD from Windows
=======================================================================
Part 2
Cracking a 128 bit WEP Key (Auditor)
Breaking WEP in 10 minutes
Crackign a 128 bit Key + entering the cridentials
Exploiting some bugs of tools used in windows
Cracking WPA Networks (Auditor)
Complete Hacking Video Using Metasploit - Meterpreter
DoS attack against Windows FTP Server
How to crack the local windows passwords in the SAM database
Droops Box Simple Pen-test Using Nmap, Nikto, Bugtraq, Nslookup, and other tools!
Aireplay attack - no wireless client required
Exploiting weaknesses of PPTP VPN (Auditor)
Finding Rougue SMB File Shares on Your Network!
Cracking Windows Passwords with BackTrack and The Online Rainbow Tables at Plain-Text
How to sniff around switches using Arpspoof and Ngrep!
A Quick and Dirty Intro to Nessus using the Auditor Boot CD!
Cracking Syskey and the SAM on Windows Using Samdump2 and John!
Fun with Ettercap Filters!
=======================================================================
Part 3
Anonym.OS LiveCD w/ build in Tor Onion Routing and Privoxy
Backtrack LiveCD to HD Installation Instruction Video
Basic Tools for Wardriving!
Bluesnarfer attack tool demo
Buffer Overflows pt1
Feauture Addition pt 1
Feauture Addition pt 2
DNS Poison Routing
Install VNC Remotely!
Internet Explorer Remote Command Execution Exploit Client Side Attack (Hi-Res)
Internet Explorer Remote Command Execution Exploit Client Side Attack (lo-Res)
John the Ripper 1.7 Password Cracker Installation Instruction Video
Local Password Cracking Presentation
MAC Bridging with Windows XP and Sniffing!
Mass-De-Authentication Using Void11 (Auditor)
Metasploit Flash Tutorial!
MITM Hijacking
Nmap Video Tut 2 Port Scan Boogaloo!
Sniffing logins and Passwords
=======================================================================
Part 4
Sniffing Remote Router Traffic via GRE Tunnels (lo-res)
A Penetration Attack Reconstructed
Telnet Bruteforce
Tunneling Exploits through SSH
Bluesnarfing a Nokia 6310i hand set
Snort Instruction Video - How To Install into Backtrack
WPA Crackign using Aireplay v2.2 Beta 7 (Whax 3.0)
WEP Cracking using Aireplay v2.2 Beta 7 (Whax 3.0)
Start a session and get the interactive commandline access to a remote windows box!
WMF File Code Execution Vulnerability W/ Metasploit!
SSH Dynamic Port Forwading
Sniffing VoIP using Cain!
Use Brutus to crack a box running telnet!
Cain to ARP Poison and sniff passwords!
Using Network Activ to sniff webpages on a Wi-Fi network!
=======================================================================
Тех.данные
Видео кодек:Windows media video, Shockwave flash
Видео:
Format : AVI
Format/Info : Audio Video Interleave
Overall bit rate : 859 Kbps
Video
Format : TechSmith
Codec ID : tscc
Codec ID/Info : TechSmith Screen Capture
Bit rate : 795 Kbps
Width : 1 024 pixels
Height : 768 pixels
Display aspect ratio : 4/3
Frame rate : 15.000 fps
Resolution : 24 bits
Bits/(Pixel*Frame) : 0.067
Stream size : 25.6 MiB (93%)
Аудио:
Format : MPEG Audio
Format version : Version 2
Format profile : Layer 3
Codec ID : 55
Codec ID/Hint : MP3
Bit rate mode : Constant
Bit rate : 56.0 Kbps
Channel(s) : 2 channels
Sampling rate : 24.0 KHz
Resolution : 16 bits
Stream size : 1.80 MiB (7%)
Alignment : Split accross interleaves
Скриншоты
[ред. Akira 03.11.2011]

Постеры

Соцсети

 

  • Похожие торренты
    Ответы
    Просмотры
    Последнее сообщение

Вернуться в Сеть и безопасность



Кто сейчас на конференции

Сейчас эту тему просматривают: CCBot и гости: 0