Видео


Сообщение

Видео [Антон Севостьянов] Создание и администрирование одноранговой сети [2011, RUS]

Сообщение Stepan » 01 фев 2012, 23:41

Создание и администрирование одноранговой сети--Год выпуска: 2011
Производитель: Антон Севостьянов
Сайт производителя: http://www.sys-team-admin.ru
Автор: Антон Севостьянов
Продолжительность: 115 мин
Тип раздаваемого материала: Видеоурок
Язык: Русский
Описание: Данный видеокурс ориентирован практически на любого человека, который хочет изучить основы построения и настройки локальной вычислительной сети. И не важно, желаете ли Вы создать домашнюю локальную сеть или мечтаете о карьере системного администратора, в любом случае данный курс будет полезен.
Почему практически на любого? Да все по тому, что перед изучением видеокурса, Вы уже должны уметь выполнять такие элементарные операции как: установка Windows, установка и настройка различного программного обеспечения, в общем, уметь работать за компьютером на уровне продвинутого пользователя.
А теперь к сути, курс состоит из 9 видео-уроков, общей продолжительность 1 час 58 минут и содержит полное описание, начиная от физической реализации и до подключения сети к Интернету.
Неоспоримым плюсом в изучении данного курса является то, что для освоения навыков в настройке сети, достаточно домашнего компьютера, так как вся сеть будет реализована в виртуальной среде. Но есть и минусы, так как виртуальная сеть будет требовать не мало системных ресурсов (мы реализуем сеть из двух виртуальных машин), то характеристики вашей системы должны быть не менее: ЦП - 2 Ггц, ОЗУ - 1Гб.
Теперь давайте вкратце разберемся о вопросах, рассмотренных в видеокурсе:
- физическая реализация локальной вычислительной сети (вид используемого кабеля, тип коннекторов, стандарты обжима кабеля, подбор сетевого оборудования);
- создание полигона на домашнем компьютере (создание виртуальных рабочих станций, создание виртуальной сети);
- подключение компьютеров к рабочей группе;
- настройка безопасности;
- администрирование рабочей группы;
- реализация система общения и передачи файлов между пользователями;
- подключение виртуальной сети к Интернету;
- куда двигаться дальше, после изучения данного курса.
Файлы примеров: отсутствуют
Формат видео: AVI
Видео: MPEG4 Video (H264) 1024x768 15.00fps 57kbps [Video 0]
Аудио: MPEG Audio Layer 3 48000Hz stereo 256kbps [Audio 1]-
MediaFile
General
Complete name : G:\Антон Севастьянов. Создание и администрирование одноранговой сети\01 Введение.avi
Format : AVI
Format/Info : Audio Video Interleave
File size : 15.4 MiB
Duration : 6mn 43s
Overall bit rate : 320 Kbps
Video
ID : 0
Format : AVC
Format/Info : Advanced Video Codec
Format profile : High@L3.1
Format settings, CABAC : Yes
Format settings, ReFrames : 1 frame
Codec ID : H264
Duration : 6mn 43s
Bit rate : 57.2 Kbps
Width : 1 024 pixels
Height : 768 pixels
Display aspect ratio : 4:3
Frame rate : 15.000 fps
Original frame rate : 25.000 fps
Color space : YUV
Chroma subsampling : 4:2:0
Bit depth : 8 bits
Scan type : Progressive
Bits/(Pixel*Frame) : 0.005
Stream size : 2.75 MiB (18%)
Writing library : x264 core 68 r1195bm 5d75a9b
Encoding settings : cabac=1 / ref=1 / deblock=1:0:0 / analyse=0x3:0x13 / me=umh / subme=7 / psy_rd=0.0:0.0 / mixed_ref=0 / me_range=16 / chroma_me=1 / trellis=1 / 8x8dct=1 / cqm=0 / deadzone=21,11 / chroma_qp_offset=0 / threads=1 / thread_queue=1 / nr=0 / decimate=1 / mbaff=0 / bframes=0 / keyint=250 / keyint_min=25 / scenecut=40 / rc=crf / crf=26.0 / qcomp=0.60 / qpmin=10 / qpmax=51 / qpstep=4 / ip_ratio=1.40 / aq=2:1.00
Audio
ID : 1
Format : MPEG Audio
Format version : Version 1
Format profile : Layer 3
Codec ID : 55
Codec ID/Hint : MP3
Duration : 6mn 43s
Bit rate mode : Constant
Bit rate : 256 Kbps
Channel(s) : 2 channels
Sampling rate : 48.0 KHz
Compression mode : Lossy
Stream size : 12.3 MiB (80%)
Alignment : Split accross interleaves
Interleave, duration : 998 ms (14.98 video frames)
Interleave, preload duration : 750 ms
--
Скриншоты

Постеры

Соцсети

 

Статистика

Автор: Stepan
Добавлен: 01 фев 2012, 23:41
Размер: 371.54 МБ
Размер: 389 592 904 байт
Сидеров: 235
Личеров: 40
Скачали: 4
Здоровье: 100%
Раздающих: 100%
Скорость скачивания: 0 байт/сек
Скорость раздачи: 0 байт/сек
Последний сидер: 5 дней 19 часов 33 минуты 19 секунд назад
Последний личер: 5 дней 19 часов 33 минуты 19 секунд назад
Приватный: Нет (DHT включён)
Сеть и безопасность Скачать торрент
Скачать торрент
[ Размер 16.04 КБ / Просмотров 10 ]

Поделиться


Вернуться в Сеть и безопасность