Видео


Сообщение

Видео [Евгений Коноплев] CCNA за 4 месяца - пошаговое руководство [2011, RUS]

Сообщение master » 09 июн 2012, 20:10

CCNA за 4 месяца - пошаговое руководство--Год выпуска: 2011
Производитель: Евгений Коноплев
Сайт производителя: http://Fasttech.ru
Автор: Евгений Коноплев
Продолжительность: 01:22:25
Тип раздаваемого материала: Видеоурок+PDF
Язык: Русский
Описание: Цель данного курса — очень живо и просто приготовить Вас к прохождению сертификации CCNA. Желая CCNA — это всего только 1-ая ступень в сертификациях Cisco(CCENT не беру в расчет, стоит сходу сдавать на CCNA), она является главнейшим фундаментом на пути к наиболее суровым сертификациям.
Правда содержится в том, что с нуля приготовиться и сдать на CCNA еще труднее, чем будучи CCNA сдать на CCNP(Cisco Certified Network Professional), когда теснее есть понимание, что такое сертификация от Cisco и как её проходить. Конкретно потому мы решили создать данный курс.
Почему этот курс?
Для очной подготовки к CCNA нужно пройти два курса: ICND1 и ICND2. Средняя стоимость каждого курса в Москве: 42000 рублей, то есть стоимость двух курсов будет около 80000-85000 руб.
Вы можете проверить это лично на сайтах известных учебных центров:
http:// www.academy.ru
http:// www.academy.it.ru
http:// www.redcenter.ru
Я считаю, что даже для москвича это не малые деньги (а для жителей регионов — точно не малые).
А вот заплатить 3000-4000 руб. за курс, который поможет подготовиться самостоятельно к CCNA, я думаю сможет каждый. В конце концов, деньги сразу же отобьются с первым повышением зарплаты.
Содержание
С чего же начать?
Вероятные пути развития карьеры с Cisco
Требования для сертификации CCNA
Виды экзаменов
Что лучше выбрать?
Методы подготовки к CCNA
Три важных предпосылки медлительной подготовки
На каком языке сдавать?
Где можнож сдать экзамен и сколько стоит
Как проходит процесс сдачи экзамена
Темы экзамена
Книжки для подготовки
Какие книжки нельзя читать
Видеоматериалы
Симуляторы и эмуляторы
— Boson NetSim
— Dynamips. Работа в критериях настоящего Cisco IOS
— GNS3
— Packet Tracer
— CCNA Network Visualizer 6.0
Без помощи других проходим лабораторные работы
Тематические ресурсы
Испытания для самопроверки
План подготовки на каждый день
Управление своим временем
Техники действенной подготовки
Что далее?
И почти все иное...
Файлы примеров: отсутствуют
Качество: PCrec
Формат видео: AVI
Видео кодек: TSCC
Аудио кодек: MP3
Видео: TSCC 940x754 15.00fps [Stream 00]
Аудио: MPEG Audio Layer 3 44100Hz stereo 128kbps [Stream 01]-
MediaInfo
General
Complete name : D:\Видеокурсы\Евгений Коноплев. CCNA за 4 месяца\CCNAFor4Months-video.avi
Format : AVI
Format/Info : Audio Video Interleave
File size : 80.5 MiB
Duration : 1h 22mn
Overall bit rate : 136 Kbps
Writing application : VirtualDubModRus 1.5.10.2 (build 2542/release)
Writing library : VirtualDubMod build 2542/release
Video
ID : 0
Format : TechSmith
Codec ID : tscc
Codec ID/Info : TechSmith Screen Capture
Duration : 1h 22mn
Bit rate : 2 124 bps
Width : 940 pixels
Height : 754 pixels
Display aspect ratio : 5:4
Frame rate : 15.000 fps
Bit depth : 8 bits
Bits/(Pixel*Frame) : 0.000
Stream size : 1.26 MiB (2%)
Audio
ID : 1
Format : MPEG Audio
Format version : Version 1
Format profile : Layer 3
Codec ID : 55
Codec ID/Hint : MP3
Duration : 1h 22mn
Bit rate mode : Constant
Bit rate : 128 Kbps
Channel(s) : 2 channels
Sampling rate : 44.1 KHz
Compression mode : Lossy
Stream size : 75.8 MiB (94%)
Alignment : Split accross interleaves
Interleave, duration : 67 ms (1.00 video frame)
Interleave, preload duration : 500 ms
-- -

Постеры

Соцсети

 

Статистика

Автор: master
Добавлен: 09 июн 2012, 20:10
Размер: 80.76 МБ
Размер: 84 683 824 байт
Сидеров: 87
Личеров: 20
Скачали: 2
Здоровье: 100%
Раздающих: 100%
Скорость скачивания: 0 байт/сек
Скорость раздачи: 0 байт/сек
Последний сидер: 4 дня 5 часов 40 минут 55 секунд назад
Последний личер: 4 дня 5 часов 40 минут 55 секунд назад
Приватный: Нет (DHT включён)
Сеть и безопасность Скачать торрент
Скачать торрент
[ Размер 13.4 КБ / Просмотров 20 ]

Поделиться


  • Похожие торренты
    Ответы
    Просмотры
    Последнее сообщение

Вернуться в Сеть и безопасность