Видео


Сообщение

Видео Русская Аляска. Продано! Тайна сделки (2011) SATRip

Сообщение master » 05 фев 2012, 23:24

Русская Аляска. Продано! Тайна сделки (2011) SATRip
Название: Русская Аляска. Продано! Тайна сделки

Год выпуска: 2011
Жанр: Документальный
Текст читает: Сергей Чонишвили

Описание:
Секретное совещание в Министерстве иностранных дел было назначено на час дня. На нем присутствовал лишь так называемый "узкий круг" посвященных: министр иностранных дел князь Горчаков, посол России в Америке Эдвард Стекль, брат царя великий князь Константин Николаевич. Последним вошел сам император Александр II.
Вопрос, который обсуждало "особое совещание", был секретным и весьма необычным. После небольшой дискуссии Эдварду Стеклю было поручено сообщить правительству США, что Россия готова уступить Аляску…

Релиз:

Продолжительность: 00:45:43

Видеокодек: Xvid
Битрейт видео: ~1400 Kbps
Размер кадра: 704x384 (1.83:1)
Качество видео: SATRip
Аудиокодек: MP3
Битрейт аудио: 128 Kbps

General
Complete name: F:\\Russkaya.Alaska.Prodano!Taina.Sdelki.avi
Format: AVI
Format/Info: Audio Video Interleave
File size: 503 MiB
Duration: 45mn 43s
Overall bit rate: 1 537 Kbps
Writing library: VirtualDub build 32842/release

Video
ID: 0
Format: MPEG-4 Visual
Format profile: Advanced Simple@L5
Format settings, BVOP: 2
Format settings, QPel: No
Format settings, GMC: No warppoints
Format settings, Matrix: Default (MPEG)
Codec ID: XVID
Codec ID/Hint: XviD
Duration: 45mn 43s
Bit rate: 1 400 Kbps
Width: 704 pixels
Height: 384 pixels
Display aspect ratio: 16:9
Frame rate: 25.000 fps
Color space: YUV
Chroma subsampling: 4:2:0
Bit depth: 8 bits
Scan type: Progressive
Compression mode: Lossy
Bits/(Pixel*Frame): 0.207
Stream size: 458 MiB (91%)
Writing library: XviD 1.2.1 (UTC 2008-12-04)

Audio
ID: 1
Format: MPEG Audio
Format version: Version 1
Format profile: Layer 3
Mode: Joint stereo
Mode extension: MS Stereo
Codec ID: 55
Codec ID/Hint: MP3
Duration: 45mn 43s
Bit rate mode: Constant
Bit rate: 128 Kbps
Channel(s): 2 channels
Sampling rate: 48.0 KHz
Compression mode: Lossy
Stream size: 41.9 MiB (8%)
Alignment: Split accross interleaves
Interleave, duration: 40 ms (1.00 video frame)
Interleave, preload duration: 500 ms
Writing library: LAME3.98r
Encoding settings: -m j -V 4 -q 2 -lowpass 17 -b 128
Скриншоты:



Время раздачи: Раздача ведется до появления первых 10 сидов.

Постеры

Соцсети

 

Вернуться в История Руси, России



Кто сейчас на конференции

Сейчас эту тему просматривают: CCBot и гости: 0