Видео


Сообщение

Видео Правители Руси (том 4) (2005) DVD5

Сообщение master » 05 фев 2012, 23:25

Правители Руси (том 4) (2005) DVD5
Название: Правители Руси (том 4)

Режиссер: А. Громов, С. Зезюльков, В. Беляков, И. Малахов
Год выпуска: 2005
Жанр: Документальный

Описание:
Каждая серия фильма посвящена наиболее значимым фигурам в истории Руси.Фильмы насыщены огромным количеством событий и фактов. Кроме уникальных документальных съемок, можно увидеть фрагменты из художественных фильмов, натурные сцены сражений и боев, которые воссозданы по летописным источникам.Вы узнаете о жизни и деятельности таких правителей как:
Eлизавета II, Екатерина II, Павел I, Александр I, Николай I, Александр II, Александр III, Николай II

Продолжительность: 03:28:00

Видеокодек: MPEG2 PAL
Битрейт видео: 6012kbps
Размер кадра: 720/576
Качество видео: DVD5
Аудиокодек: Dolby AC3, 2ch
Битрейт аудио: 192 kb/s, 48.0 кГц
General
Complete name: E:\Praviteli_rysi_TOM4\VTS_02_1.VOB
Format: MPEG-PS
File size: 1 024 MiB
Duration: 22mn 36s
Overall bit rate: 6 330 Kbps

Video
ID: 224 (0xE0)
Format: MPEG Video
Format version: Version 2
Format profile: Main@Main
Format settings, BVOP: Yes
Format settings, Matrix: Default
Duration: 22mn 36s
Bit rate mode: Variable
Bit rate: 6 012 Kbps
Nominal bit rate: 9 000 Kbps
Width: 720 pixels
Height: 576 pixels
Display aspect ratio: 4:3
Frame rate: 25.000 fps
Standard: PAL
Color space: YUV
Chroma subsampling: 4:2:0
Bit depth: 8 bits
Scan type: Interlaced
Scan order: Top Field First
Bits/(Pixel*Frame): 0.580
Stream size: 972 MiB (95%)

Audio
ID: 128 (0x80)
Format: AC-3
Format/Info: Audio Coding 3
Mode extension: CM (complete main)
Duration: 22mn 36s
Bit rate mode: Constant
Bit rate: 192 Kbps
Channel(s): 2 channels
Channel positions: Front: L R
Sampling rate: 48.0 KHz
Bit depth: 16 bits
Stream size: 31.0 MiB (3%)
[/color][b][/color][b][/color] [b]Скриншоты:


Время раздачи: с 10:00 до 20:00

Постеры

Соцсети

 

Вернуться в История Руси, России



Кто сейчас на конференции

Сейчас эту тему просматривают: CCBot и гости: 0