Видео


Сообщение

Видео Две революции 1917 года (2003) DVDRip

Сообщение master » 05 фев 2012, 23:25

Две революции 1917 года (2003) DVDRip
Название: Две революции 1917 года

Режиссер / Телекомпания: Студия Кварт
Год выпуска: 2003
Жанр: Документальный

Описание:
Учебный фильм об истории 1917 года,созданный на основе исторической хроники.Начинается с анализа причин Февральских событий и заканчивается описанием Октябрьских событий 1917 г.

Продолжительность: 01:07:05

Видеокодек: DivX 4/5/6
Битрейт видео: ~1005 kb/s
Размер кадра: 688х512
Качество видео: DVDRip
Аудиокодек: AC-3
Битрейт аудио: 448 kb/s
Полное имя : D:\Users\Анна\Documents\Лицей\Отеч.история 11\Dve.revoljucii.1917.goda.2003.DivX.DVDRip.avi
Формат : AVI
Формат/Информация : Audio Video Interleave
Размер файла : 700 Мбайт
Продолжительность : 1 ч. 7 м.
Общий поток : 1460 Кбит/сек
Программа кодирования : VirtualDubMod 1.5.4.1 (build 2178/release)
Библиотека кодирования : VirtualDubMod build 2178/release

Видео
Идентификатор : 0
Формат : MPEG-4 Visual
Параметр BVOP формата : 1
Параметр QPel формата : Нет
Параметр GMC формата : Без точки перехода
Параметр матрицы формата : Default (H.263)
Режим смешивания : Сжатый битовый поток
Идентификатор кодека : DX50
Идентификатор кодека/Подсказка : DivX 5
Продолжительность : 1 ч. 7 м.
Битрейт : 1005 Кбит/сек
Ширина : 688 пикселей
Высота : 512 пикселей
Соотношение сторон : 4:3
Частота кадров : 25,000 кадров/сек
Цветовое пространство : YUV
Субдискретизация насыщенности : 4:2:0
Битовая глубина : 8 бит
Тип развёртки : Прогрессивная
Метод сжатия : С потерями
Бит/(Пиксели*Кадры) : 0.114
Размер потока : 482 Мбайт (69%)
Библиотека кодирования : DivX 6.8.5 (UTC 2009-08-20)

Аудио
Идентификатор : 1
Формат : AC-3
Формат/Информация : Audio Coding 3
Расширение режима : CM (complete main)
Идентификатор кодека : 2000
Продолжительность : 1 ч. 7 м.
Вид битрейта : Постоянный
Битрейт : 448 Кбит/сек
Каналы : 2 канала
Расположение каналов : Front: L R
Частота : 48,0 КГц
Битовая глубина : 16 бит
Метод сжатия : С потерями
Размер потока : 215 Мбайт (31%)
Выравнивание : Разделение по промежуткам
Продолжительность промежутка : 96 мс. (2,40 видеокадра)
Время предзагрузки промежутка : 96 мс.
Язык : Russian
Скриншоты:

Время раздачи: с 20:00 до 07:00

Постеры

Соцсети

 

Статистика

Автор: master
Добавлен: 05 фев 2012, 23:25
Размер: 700.41 МБ
Размер: 734 429 184 байт
Сидеров: 13
Личеров: 0
Скачали: 1
Здоровье: 100%
Раздающих: 100%
Скорость скачивания: 0 байт/сек
Скорость раздачи: 0 байт/сек
Последний сидер: 7 месяцев 24 дня 9 часов 18 минут 30 секунд назад
Последний личер: 7 месяцев 25 дней 7 часов 40 минут 35 секунд назад
Приватный: Нет (DHT включён)
Скачать торрент
Скачать торрент
[ Размер 14.44 КБ / Просмотров 18 ]

Поделиться


Вернуться в История Руси, России