Видео


Сообщение

Видео В постели с врагом (2007) SATRip

Сообщение master » 05 фев 2012, 23:25

В постели с врагом (2007) SATRip
Русское название: В постели с врагом
Режиссер / Телекомпания: Игорь Максимчук, Россия, ТВ Центр
Год выпуска: 2007
Жанр: Документальный

Описание:
Люди с оружием в руках врывались в дома и силой вытаскивали женщин, вели их на городскую площадь и стригли наголо. Женщин держали за руки, чтобы не сопротивлялись. Призванный исполнить свой патриотический долг парикмахер орудовал ножницами или машинкой для стрижки. Наказание и унижение были тем сильнее, что совершались публично, на глазах у родственников, соседей и знакомых. Собравшиеся смеялись и аплодировали. После этого опозоренных женщин водили по улицам - всем напоказ. Иногда с женщин срывали одежду. Мальчишки улюлюкали.С 1943 по 1946 год больше 20 тысяч женщин во Франции были обвинены в сотрудничестве с оккупантами и наголо острижены. Таково было наказание за то, что они помогали врагу, выказывали симпатии нацистской Германии или просто спали с немцами, что называлось "горизонтальным коллаборационизмом". Публичное наказание женщин давало возможность каждому французу почувствовать, что оккупация закончилась, что он наконец-то свободен! Это было самым зримым избавлением от позорного прошлого, которое хотелось поскорее забыть. Иногда, впрочем, в этой церемонии не было никакой политики. Женщин стригли наголо и в городках, где в годы войны не размещались немецкие гарнизоны, не было ни коллаборационистов, ни участников Сопротивления. Хозяева городка возвращали себе власть над женщинами, или, как говорят феминистки, удовлетворяли свой мужской шовинизм.

Продолжительность: 00:38:58
Качество видео: SATRip
Видео: XviD, 1500 Кбит/с, 704x528
Аудио: MP3, 2 ch, 128 Кбит/с

General
Complete name: G:\Документалистика\V.posteli.s.vragom.2007.XviD.SATRip.avi
Format: AVI
Format/Info: Audio Video Interleave
File size: 456 MiB
Duration: 38mn 58s
Overall bit rate: 1 636 Kbps
Writing library: VirtualDub build 33815/release

Video
ID: 0
Format: MPEG-4 Visual
Format profile: Advanced Simple@L5
Format settings, BVOP: 1
Format settings, QPel: No
Format settings, GMC: No warppoints
Format settings, Matrix: Default (H.263)
Muxing mode: Packed bitstream
Codec ID: DX50
Codec ID/Hint: DivX 5
Duration: 38mn 58s
Bit rate: 1 498 Kbps
Width: 704 pixels
Height: 528 pixels
Display aspect ratio: 4:3
Frame rate: 25.000 fps
Color space: YUV
Chroma subsampling: 4:2:0
Bit depth: 8 bits
Scan type: Progressive
Compression mode: Lossy
Bits/(Pixel*Frame): 0.161
Stream size: 418 MiB (92%)
Writing library: XviD 1.2.1 (UTC 2008-12-04)

Audio
ID: 1
Format: MPEG Audio
Format version: Version 1
Format profile: Layer 3
Mode: Joint stereo
Mode extension: MS Stereo
Codec ID: 55
Codec ID/Hint: MP3
Duration: 38mn 58s
Bit rate mode: Constant
Bit rate: 128 Kbps
Channel(s): 2 channels
Sampling rate: 48.0 KHz
Compression mode: Lossy
Stream size: 35.7 MiB (8%)
Alignment: Split accross interleaves
Interleave, duration: 40 ms (1.00 video frame)
Interleave, preload duration: 500 ms
Время раздачи: 24/7 - круглосуточно

Постеры

Соцсети

 

Вернуться в История Руси, России



Кто сейчас на конференции

Сейчас эту тему просматривают: CCBot и гости: 0