Видео


Сообщение

Видео Секретные проекты (2005) TVRip

Сообщение master » 05 фев 2012, 23:28

Секретные проекты (2005) TVRip
Название: Секретные проекты

Руководитель проекта/ Телекомпания: Лев Николаев/«Цивилизация»
Год выпуска: 2005
Жанр: Телепередача

Описание:
Мало кто знает, что практически за каждым крупным научно-техническим проектом XX века стоит настоящая драма идей и борьба учёных, конструкторов. Сериал посвящён проектам, которые в своё время были засекречены. О многих из них, хотя они и были официально рассекречены, почти ничего не известно. В сериале рассказывается о деятельности штаба мировой революции – Коминтерна. О том, как многие из тысяч его секретных агентов, выполнив очередное задание, исчезали навсегда после проверок и чисток. И об абсолютно новом повороте в истории спасения знаменитого теплохода «Челюскин». О том, как прямо во время торжеств допрашивали на Лубянке челюскинцев.
В фильмах цикла использованы документы из некогда секретных архивов ЦК КПСС, содержащие подробности советских разработок систем космической обороны 40-х годов, едва не приведших к осуществлению идеи звёздных войн. В центре внимания каждого из восьми фильмов – засекреченные проекты и попытки воплотить их в жизнь.
1. «Золото Коминтерна».
О неизвестных страницах деятельности штаба мировой революции – Коминтерна. На протяжении 25 лет тысячи секретных агентов поднимали вооружённые восстания, занимались вербовкой и создавали шпионские сети по всему миру. Многие из них работали, считая, что борются за «светлое будущее человечества», а выполнив очередное задание, они исчезали навсегда. Руководители Коминтерна стремились к неограниченной власти и личному обогащению за счет коммунистических идей. Главные документы о деятельности этой организации до сих пор недоступны для большинства исследователей.

2. «Ракетный миф».
О создании ракетного проекта «Даль». В 1964 году аналитики ЦРУ стали жертвами дезинформации, авторами которой были лучшие специалисты Главного разведывательного управления Генерального штаба Советской Армии. Якобы надёжный источник утверждал, что в СССР разработано и запущено в серийное производство новое супероружие – беспилотные перехватчики тактических ядерных ракет. Для обеспечения адекватного ответа на новую советскую военную угрозу Пентагон получил от Конгресса США около 9 миллиардов долларов.

3. «Космические страсти по «Алмазу».
Судьба ракетного комплекса «Алмаз», как и судьба его создателя Владимира Челомея и членов секретного космического отряда, была трагичной. Если бы этот проект удалось реализовать до конца, то сейчас на околоземной орбите летал бы десяток космических крепостей, способных не только вести разведку, но и уничтожать вражеские космические аппараты, наносить бомбовые удары по объектам на поверхности земли, а их экипажи проводили бы полномасштабные диверсионные операции в космосе.

4. «Асимметричный ответ».
С появлением «Шаттла» все преимущества советской космонавтики были сведены на нет.
Попытка создать аналог – «Буран» – оказалась слишком дорогостоящей для экономики страны.

5. «Мобильный для Лубянки».
В 1935 году вышел в свет сборник научных трудов Ленинградского экспериментального института связи, где была напечатана статья инженера Дмитрия Агеева под названием «Основы теории линейной селекции». Математический алгоритм мобильной телефонной связи, предложенный учёным, опередил время, но технический отдел НКВД засекретил изобретение.

6. «Подземный крейсер».
В начале 30-х годов прошлого века в СССР и Германии было изобретено принципиально новое оружие – подземная лодка. Первая модификация советской подземной лодки, оказавшейся мощнее и эффективнее немецкой, прошла несколько испытаний на Урале, в Ростовской области и в подмосковном Нахабино. Подземная лодка работала по принципу машин, прокладывающих тоннели в метро. Немецкой разведке в результате тщательно спланированной дезинформации удалось убедить руководство СССР в том, что инженер А.И. Требелевский работает на Абвер. Учёный был расстрелян, а уникальное изобретение засекречено и едва не забыто.

7. «Бомба-невидимка».
Разработка психотропного оружия в СССР велась с середины 30-х годов ХХ века. В 1945 году в занятом советскими войсками Кенигсберге контрразведчики обнаружили сохранившуюся секретную лабораторию и архив. Для проведения экспертизы из Москвы вызвали группу советских учёных во главе с психиатром профессором Александром Спиринским. Выяснилось, что в конце 1944 года немцы, исследуя возможности влияния на психику больших групп людей, пришли к созданию практически того же устройства, что и советские учёные. Была разработана схема бомбы-невидимки – устройства, которое могло излучать сигналы, вызывающие у человека неконтролируемые психические реакции.

8. «Неизвестный «Челюскин».
О неизвестных подробностях путешествия теплохода «Челюскин» по Северному морскому пути в 1933-1934 годах.
Весной 1934 года весь мир облетела сенсационная новость о спасении экипажа теплохода «Челюскин», затонувшего у берегов Чукотки. Бернард Шоу по телефону поздравил Сталина: «Русские даже трагедию превращают в триумф». Верховный Совет СССР учредил высшую государственную награду – Герой Советского Союза – специально для лётчиков, спасавших экспедицию.
Продолжительность: 8 серий по 25 минут

Видеокодек: Xvid (8-я серия WMV3)
Битрейт видео: ~1727 Кбит/сек (8-я серия ~571Кбит/сек )
Размер кадра: 704 x 528 (8-я серия 720 х 576)
Качество видео: TVRip
Аудиокодек: WMA
Битрейт аудио: 128 Кбит/сек (8-я серия 20,0 Кбит/сек)
Общее
Полное имя: C:\Users\Eugen\Desktop\Раздача\Секретные проекты\1 - Золото Коминтерна.avi
Формат: AVI
Формат/Информация: Audio Video Interleave
Размер файла: 350 Мбайт
Продолжительность: 26 м.
Общий поток: 1863 Кбит/сек
Программа кодирования: VirtualDubMod 1.5.4.1 (build 2178/release)
Библиотека кодирования: VirtualDubMod build 2178/release

Видео
Идентификатор: 0
Формат: MPEG-4 Visual
Профиль формата: Advanced Simple@L5
Параметр BVOP формата: 1
Параметр QPel формата: Нет
Параметр GMC формата: Без точки перехода
Параметр матрицы формата: Выборочная
Идентификатор кодека: XVID
Идентификатор кодека/Подсказка: XviD
Продолжительность: 26 м.
Битрейт: 1727 Кбит/сек
Ширина: 704 пикселя
Высота: 528 пикселей
Соотношение сторон: 4:3
Частота кадров: 25,000 кадров/сек
Цветовое пространство: YUV
Субдискретизация насыщенности: 4:2:0
Битовая глубина: 8 бит
Тип развёртки: Прогрессивная
Метод сжатия: С потерями
Бит/(Пиксели*Кадры): 0.186
Размер потока: 325 Мбайт (93%)
Библиотека кодирования: XviD 1.2.1 (UTC 2008-12-04)

Аудио
Идентификатор: 1
Формат: MPEG Audio
Версия формата: Version 1
Профиль формата: Layer 3
Режим: Joint stereo
Расширение режима: MS Stereo
Идентификатор кодека: 55
Идентификатор кодека/Подсказка: MP3
Продолжительность: 26 м.
Вид битрейта: Постоянный
Битрейт: 128 Кбит/сек
Каналы: 2 канала
Частота: 48,0 КГц
Метод сжатия: С потерями
Размер потока: 24,1 Мбайт (7%)
Выравнивание: Соединение по промежуткам
Продолжительность промежутка: 80мс. (2,00 видеокадра)
Время предзагрузки промежутка: 504мс.
Библиотека кодирования: LAME3.98r
Настройки программы: -m j -V 4 -q 2 -lowpass 17 -b 128

Общее
Полное имя: C:\Users\Eugen\Desktop\Раздача\Секретные проекты\2 - Ракетный миф.avi
Формат: AVI
Формат/Информация: Audio Video Interleave
Размер файла: 350 Мбайт
Продолжительность: 26 м.
Общий поток: 1872 Кбит/сек
Программа кодирования: VirtualDubMod 1.5.4.1 (build 2178/release)
Библиотека кодирования: VirtualDubMod build 2178/release

Видео
Идентификатор: 0
Формат: MPEG-4 Visual
Профиль формата: Advanced Simple@L5
Параметр BVOP формата: 1
Параметр QPel формата: Нет
Параметр GMC формата: Без точки перехода
Параметр матрицы формата: Выборочная
Идентификатор кодека: XVID
Идентификатор кодека/Подсказка: XviD
Продолжительность: 26 м.
Битрейт: 1736 Кбит/сек
Ширина: 704 пикселя
Высота: 528 пикселей
Соотношение сторон: 4:3
Частота кадров: 25,000 кадров/сек
Цветовое пространство: YUV
Субдискретизация насыщенности: 4:2:0
Битовая глубина: 8 бит
Тип развёртки: Прогрессивная
Метод сжатия: С потерями
Бит/(Пиксели*Кадры): 0.187
Размер потока: 325 Мбайт (93%)
Библиотека кодирования: XviD 1.2.1 (UTC 2008-12-04)

Аудио
Идентификатор: 1
Формат: MPEG Audio
Версия формата: Version 1
Профиль формата: Layer 3
Режим: Joint stereo
Расширение режима: MS Stereo
Идентификатор кодека: 55
Идентификатор кодека/Подсказка: MP3
Продолжительность: 26 м.
Вид битрейта: Постоянный
Битрейт: 128 Кбит/сек
Каналы: 2 канала
Частота: 48,0 КГц
Метод сжатия: С потерями
Размер потока: 23,9 Мбайт (7%)
Выравнивание: Соединение по промежуткам
Продолжительность промежутка: 80мс. (2,00 видеокадра)
Время предзагрузки промежутка: 504мс.
Библиотека кодирования: LAME3.98r
Настройки программы: -m j -V 4 -q 2 -lowpass 17 -b 128

Общее
Полное имя: C:\Users\Eugen\Desktop\Раздача\Секретные проекты\3 - Космические страсти по Алмазу.avi
Формат: AVI
Формат/Информация: Audio Video Interleave
Размер файла: 350 Мбайт
Продолжительность: 26 м.
Общий поток: 1873 Кбит/сек
Программа кодирования: VirtualDubMod 1.5.4.1 (build 2178/release)
Библиотека кодирования: VirtualDubMod build 2178/release

Видео
Идентификатор: 0
Формат: MPEG-4 Visual
Профиль формата: Advanced Simple@L5
Параметр BVOP формата: 1
Параметр QPel формата: Нет
Параметр GMC формата: Без точки перехода
Параметр матрицы формата: Выборочная
Идентификатор кодека: XVID
Идентификатор кодека/Подсказка: XviD
Продолжительность: 26 м.
Битрейт: 1738 Кбит/сек
Ширина: 704 пикселя
Высота: 528 пикселей
Соотношение сторон: 4:3
Частота кадров: 25,000 кадров/сек
Цветовое пространство: YUV
Субдискретизация насыщенности: 4:2:0
Битовая глубина: 8 бит
Тип развёртки: Прогрессивная
Метод сжатия: С потерями
Бит/(Пиксели*Кадры): 0.187
Размер потока: 325 Мбайт (93%)
Библиотека кодирования: XviD 1.2.1 (UTC 2008-12-04)

Аудио
Идентификатор: 1
Формат: MPEG Audio
Версия формата: Version 1
Профиль формата: Layer 3
Режим: Joint stereo
Расширение режима: MS Stereo
Идентификатор кодека: 55
Идентификатор кодека/Подсказка: MP3
Продолжительность: 26 м.
Вид битрейта: Постоянный
Битрейт: 128 Кбит/сек
Каналы: 2 канала
Частота: 48,0 КГц
Метод сжатия: С потерями
Размер потока: 23,9 Мбайт (7%)
Выравнивание: Соединение по промежуткам
Продолжительность промежутка: 80мс. (2,00 видеокадра)
Время предзагрузки промежутка: 504мс.
Библиотека кодирования: LAME3.98r
Настройки программы: -m j -V 4 -q 2 -lowpass 17 -b 128

Общее
Полное имя: C:\Users\Eugen\Desktop\Раздача\Секретные проекты\4 - Асимметричный ответ.avi
Формат: AVI
Формат/Информация: Audio Video Interleave
Размер файла: 350 Мбайт
Продолжительность: 26 м.
Общий поток: 1869 Кбит/сек
Программа кодирования: VirtualDubMod 1.5.4.1 (build 2178/release)
Библиотека кодирования: VirtualDubMod build 2178/release

Видео
Идентификатор: 0
Формат: MPEG-4 Visual
Профиль формата: Advanced Simple@L5
Параметр BVOP формата: 1
Параметр QPel формата: Нет
Параметр GMC формата: Без точки перехода
Параметр матрицы формата: Выборочная
Идентификатор кодека: XVID
Идентификатор кодека/Подсказка: XviD
Продолжительность: 26 м.
Битрейт: 1734 Кбит/сек
Ширина: 704 пикселя
Высота: 528 пикселей
Соотношение сторон: 4:3
Частота кадров: 25,000 кадров/сек
Цветовое пространство: YUV
Субдискретизация насыщенности: 4:2:0
Битовая глубина: 8 бит
Тип развёртки: Прогрессивная
Метод сжатия: С потерями
Бит/(Пиксели*Кадры): 0.187
Размер потока: 325 Мбайт (93%)
Библиотека кодирования: XviD 1.2.1 (UTC 2008-12-04)

Аудио
Идентификатор: 1
Формат: MPEG Audio
Версия формата: Version 1
Профиль формата: Layer 3
Режим: Joint stereo
Расширение режима: MS Stereo
Идентификатор кодека: 55
Идентификатор кодека/Подсказка: MP3
Продолжительность: 26 м.
Вид битрейта: Постоянный
Битрейт: 128 Кбит/сек
Каналы: 2 канала
Частота: 48,0 КГц
Метод сжатия: С потерями
Размер потока: 24,0 Мбайт (7%)
Выравнивание: Соединение по промежуткам
Продолжительность промежутка: 80мс. (2,00 видеокадра)
Время предзагрузки промежутка: 504мс.
Библиотека кодирования: LAME3.98r
Настройки программы: -m j -V 4 -q 2 -lowpass 17 -b 128

Общее
Полное имя: C:\Users\Eugen\Desktop\Раздача\Секретные проекты\5 - Мобильный для Лубянки.avi
Формат: AVI
Формат/Информация: Audio Video Interleave
Размер файла: 350 Мбайт
Продолжительность: 26 м.
Общий поток: 1874 Кбит/сек
Программа кодирования: VirtualDubMod 1.5.4.1 (build 2178/release)
Библиотека кодирования: VirtualDubMod build 2178/release

Видео
Идентификатор: 0
Формат: MPEG-4 Visual
Профиль формата: Advanced Simple@L5
Параметр BVOP формата: 1
Параметр QPel формата: Нет
Параметр GMC формата: Без точки перехода
Параметр матрицы формата: Выборочная
Идентификатор кодека: XVID
Идентификатор кодека/Подсказка: XviD
Продолжительность: 26 м.
Битрейт: 1739 Кбит/сек
Ширина: 704 пикселя
Высота: 528 пикселей
Соотношение сторон: 4:3
Частота кадров: 25,000 кадров/сек
Цветовое пространство: YUV
Субдискретизация насыщенности: 4:2:0
Битовая глубина: 8 бит
Тип развёртки: Прогрессивная
Метод сжатия: С потерями
Бит/(Пиксели*Кадры): 0.187
Размер потока: 325 Мбайт (93%)
Библиотека кодирования: XviD 1.2.1 (UTC 2008-12-04)

Аудио
Идентификатор: 1
Формат: MPEG Audio
Версия формата: Version 1
Профиль формата: Layer 3
Режим: Joint stereo
Расширение режима: MS Stereo
Идентификатор кодека: 55
Идентификатор кодека/Подсказка: MP3
Продолжительность: 26 м.
Вид битрейта: Постоянный
Битрейт: 128 Кбит/сек
Каналы: 2 канала
Частота: 48,0 КГц
Метод сжатия: С потерями
Размер потока: 23,9 Мбайт (7%)
Выравнивание: Разделение по промежуткам
Продолжительность промежутка: 80мс. (2,00 видеокадра)
Время предзагрузки промежутка: 500мс.
Библиотека кодирования: LAME3.98.2

Общее
Полное имя: C:\Users\Eugen\Desktop\Раздача\Секретные проекты\6 - Подземный крейсер.avi
Формат: AVI
Формат/Информация: Audio Video Interleave
Размер файла: 350 Мбайт
Продолжительность: 26 м.
Общий поток: 1872 Кбит/сек
Программа кодирования: VirtualDubMod 1.5.4.1 (build 2178/release)
Библиотека кодирования: VirtualDubMod build 2178/release

Видео
Идентификатор: 0
Формат: MPEG-4 Visual
Профиль формата: Advanced Simple@L5
Параметр BVOP формата: 1
Параметр QPel формата: Нет
Параметр GMC формата: Без точки перехода
Параметр матрицы формата: Выборочная
Идентификатор кодека: XVID
Идентификатор кодека/Подсказка: XviD
Продолжительность: 26 м.
Битрейт: 1737 Кбит/сек
Ширина: 704 пикселя
Высота: 528 пикселей
Соотношение сторон: 4:3
Частота кадров: 25,000 кадров/сек
Цветовое пространство: YUV
Субдискретизация насыщенности: 4:2:0
Битовая глубина: 8 бит
Тип развёртки: Прогрессивная
Метод сжатия: С потерями
Бит/(Пиксели*Кадры): 0.187
Размер потока: 325 Мбайт (93%)
Библиотека кодирования: XviD 1.2.1 (UTC 2008-12-04)

Аудио
Идентификатор: 1
Формат: MPEG Audio
Версия формата: Version 1
Профиль формата: Layer 3
Режим: Joint stereo
Расширение режима: MS Stereo
Идентификатор кодека: 55
Идентификатор кодека/Подсказка: MP3
Продолжительность: 26 м.
Вид битрейта: Постоянный
Битрейт: 128 Кбит/сек
Каналы: 2 канала
Частота: 48,0 КГц
Метод сжатия: С потерями
Размер потока: 23,9 Мбайт (7%)
Выравнивание: Соединение по промежуткам
Продолжительность промежутка: 80мс. (2,00 видеокадра)
Время предзагрузки промежутка: 504мс.
Библиотека кодирования: LAME3.98r
Настройки программы: -m j -V 4 -q 2 -lowpass 17 -b 128

Общее
Полное имя: C:\Users\Eugen\Desktop\Раздача\Секретные проекты\7 - Бомба-невидимка.avi
Формат: AVI
Формат/Информация: Audio Video Interleave
Размер файла: 350 Мбайт
Продолжительность: 26 м.
Общий поток: 1877 Кбит/сек
Программа кодирования: VirtualDubMod 1.5.4.1 (build 2178/release)
Библиотека кодирования: VirtualDubMod build 2178/release

Видео
Идентификатор: 0
Формат: MPEG-4 Visual
Профиль формата: Advanced Simple@L5
Параметр BVOP формата: 1
Параметр QPel формата: Нет
Параметр GMC формата: Без точки перехода
Параметр матрицы формата: Выборочная
Идентификатор кодека: XVID
Идентификатор кодека/Подсказка: XviD
Продолжительность: 26 м.
Битрейт: 1741 Кбит/сек
Ширина: 704 пикселя
Высота: 528 пикселей
Соотношение сторон: 4:3
Частота кадров: 25,000 кадров/сек
Цветовое пространство: YUV
Субдискретизация насыщенности: 4:2:0
Битовая глубина: 8 бит
Тип развёртки: Прогрессивная
Метод сжатия: С потерями
Бит/(Пиксели*Кадры): 0.187
Размер потока: 325 Мбайт (93%)
Библиотека кодирования: XviD 1.2.1 (UTC 2008-12-04)

Аудио
Идентификатор: 1
Формат: MPEG Audio
Версия формата: Version 1
Профиль формата: Layer 3
Режим: Joint stereo
Расширение режима: MS Stereo
Идентификатор кодека: 55
Идентификатор кодека/Подсказка: MP3
Продолжительность: 26 м.
Вид битрейта: Постоянный
Битрейт: 128 Кбит/сек
Каналы: 2 канала
Частота: 48,0 КГц
Метод сжатия: С потерями
Размер потока: 23,9 Мбайт (7%)
Выравнивание: Соединение по промежуткам
Продолжительность промежутка: 80мс. (2,00 видеокадра)
Время предзагрузки промежутка: 504мс.
Библиотека кодирования: LAME3.98r
Настройки программы: -m j -V 4 -q 2 -lowpass 17 -b 128

Общее
Полное имя: C:\Users\Eugen\Desktop\Раздача\Секретные проекты\8 - Неизвестный Челюскин.wmv
Формат: Windows Media
Размер файла: 113 Мбайт
Продолжительность: 26 м.
Режим общего битрейта: Переменный
Общий поток: 607 Кбит/сек
Максимальный общий битрейт: 1529 Кбит/сек
Дата кодирования: UTC 2006-09-12 20:44:43.906

Видео
Идентификатор: 2
Формат: VC-1
Профиль формата: MP@ML
Идентификатор кодека: WMV3
Идентификатор кодека/Информация: Windows Media Video 9
Идентификатор кодека/Подсказка: WMV3
Описание кодека: Windows Media Video 9
Продолжительность: 26 м.
Вид битрейта: Переменный
Битрейт: 571 Кбит/сек
Ширина: 720 пикселей
Высота: 576 пикселей
Соотношение сторон: 4:3
Частота кадров: 25,000 кадров/сек
Стандарт вещания: PAL
Битовая глубина: 8 бит
Тип развёртки: Прогрессивная
Метод сжатия: С потерями
Бит/(Пиксели*Кадры): 0.055
Размер потока: 107 Мбайт (94%)
Язык: Russian

Аудио
Идентификатор: 1
Формат: WMA
Версия формата: Version 2
Идентификатор кодека: 161
Идентификатор кодека/Информация: Windows Media Audio
Описание кодека: Windows Media Audio 9 -20 kbps, 44 kHz, mono 2-pass CBR
Продолжительность: 26 м.
Вид битрейта: Постоянный
Битрейт: 20,0 Кбит/сек
Каналы: 1 канал
Частота: 44,1 КГц
Битовая глубина: 16 бит
Размер потока: 3,73 Мбайт (3%)
Язык: Russian
Скриншоты:


Время раздачи: 8:00 до 23:00

Постеры

Соцсети

 

Статистика

Автор: master
Добавлен: 05 фев 2012, 23:28
Размер: 2.5 ГБ
Размер: 2 687 906 460 байт
Сидеров: 0
Личеров: 52
Скачали: 0
Здоровье: ???%
Скорость скачивания: 0 байт/сек
Скорость раздачи: 0 байт/сек
Последний сидер: Нет
Последний личер: 25 минут 20 секунд назад
Приватный: Нет (DHT включён)
Скачать торрент
Скачать торрент
[ Размер 102.5 КБ / Просмотров 5 ]

Поделиться


Вернуться в История Руси, России