Видео


Сообщение

Видео Севастополь. Испытание войной (4 серии) (2007) DVDRip

Сообщение master » 05 фев 2012, 23:29

Севастополь. Испытание войной (4 серии) (2007) DVDRip
Название: Севастополь. Испытание войной (4 серии)
Производство: Россия, Украина
Год выпуска: 2007
Режиссер Юрий Бойчук, Вадим Хапаев
Жанр: Документально-художественный фильм
Продолжительность серий: 1:03:38 + 1:03:16 + 1:00:56 + 1:11:08
Общая продолжительность: 4:18:58

В ролях: Вадим Хапаев, Любовь Серокурова, Максим Крапивенцев, Александр Краевой, Сергей Трафедлюк, Юрий Корнишин.

Описание:
Этот фильм повествует о судьбе Севастополя, его защитниках и освободителях в годы Великой Отечественной войны. Подробно рассказывается о том, как фашисты дошли до Севастополя, почему город сумел продержаться в осаде 8 месяцев, что привело к его захвату; об ужасах оккупационного режима, о самоотверженных борцах севастопольского подполья, об освобождении города. Фильм создан в жанре документально-художественной эпопеи. Центральным персонажем лирического сюжета фильма стала героиня севастопольского подполья, крымская татарка Нелли Велиева, подвиг которой был сознательно вычеркнут из истории советскими идеологами. В фильме собраны уникальные кадры советской и немецкой кинохроники, наглядно иллюстрирующие масштабы и ужас кровавой севастопольской эпопеи.
В создании фильма принимали участие профессиональные историки – преподаватели, аспиранты и студенты отделения истории Черноморского филиала МГУ им. М.В. Ломоносова и исторического факультета МГУ.
Специально для этого фильма был написан оригинальный саундтрек, состоящий из нескольких десятков новых музыкальных произведений. В фильме также впервые звучит песня «Тишина».

Продюсер: Юрий Бойчук
Авторы сценария: Вадим Хапаев, Юрий Викторов
Режиссер постановочных сцен: Вадим Хапаев
Оператор-постановщик: Виталий Диденко
Операторы: Александр Устич, Виктор Шемшура, Денис Гончаров
Режиссёр монтажа: Денис Гончаров
Ведущий: Вадим Хапаев
Качество видео: DVDRip
Формат: AVI
Видеокодек: Xvid
Битрейт видео: ~1560 kbps
Размер кадра: 688 x 464, 25 fps
Аудиокодек: AC3 2.0
Битрейт аудио: 192 kb/s, 48kHz
F:\\Севастополь. Испытание войной\Sevastopol_1.avi
General
Complete name : F:\\Севастополь. Испытание войной\Sevastopol_1.avi
Format : AVI
Format/Info : Audio Video Interleave
File size : 799 MiB
Duration : 1h 3mn
Overall bit rate : 1 756 Kbps
Writing application : VirtualDubMod 1.5.10.2 (build 2540/release)
Writing library : VirtualDubMod build 2540/release
Video #0
ID : 0
Format : MPEG-4 Visual
Format profile : Advanced Simple@L5
Format settings, BVOP : Yes
Format settings, QPel : Yes
Format settings, GMC : 3 warppoints
Format settings, Matrix : Default (H.263)
Codec ID : XVID
Codec ID/Hint : XviD
Duration : 1h 3mn
Bit rate : 1 558 Kbps
Width : 688 pixels
Height : 464 pixels
Display aspect ratio : 3:2
Frame rate : 25.000 fps
Color space : YUV
Chroma subsampling : 4:2:0
Bit depth : 8 bits
Scan type : Progressive
Bits/(Pixel*Frame) : 0.195
Stream size : 709 MiB (89%)
Writing library : XviD 1.2.1 (UTC 2008-12-04)
Audio #1
ID : 1
Format : AC-3
Format/Info : Audio Coding 3
Mode extension : CM (complete main)
Codec ID : 2000
Duration : 1h 3mn
Bit rate mode : Constant
Bit rate : 192 Kbps
Channel(s) : 2 channels
Channel positions : Front: L R
Sampling rate : 48.0 KHz
Stream size : 87.4 MiB (11%)
Alignment : Split accross interleaves
Interleave, duration : 160 ms (4.00 video frames)
Interleave, preload duration : 500 ms
Скриншоты:



Время раздачи: Раздача ведется до появления первых 10 сидов

Постеры

Соцсети

 

Статистика

Автор: master
Добавлен: 05 фев 2012, 23:29
Размер: 3.19 ГБ
Размер: 3 423 971 328 байт
Сидеров: 0
Личеров: 0
Скачали: 0
Здоровье: 0%
Скорость скачивания: 0 байт/сек
Скорость раздачи: 0 байт/сек
Последний сидер: 3 года 5 месяцев 30 дней 9 часов 30 минут 42 секунды назад
Последний личер: Нет
Приватный: Нет (DHT включён)
Скачать торрент
Скачать торрент
[ Размер 16.88 КБ / Просмотров 4 ]

Поделиться


Вернуться в История Руси, России