Видео


Сообщение

Видео Былое и думы. ГКЧП. Хроника тревожных дней (2011) SATRip

Сообщение master » 05 фев 2012, 23:29

Былое и думы. ГКЧП. Хроника тревожных дней (2011) SATRip
Русское название: Былое и думы. ГКЧП. Хроника тревожных дней
Режиссер / Телекомпания: Россия, ЗАО "Первый канал. Всемирная сеть"
Год выпуска: 2011
Жанр: Документальный, Телепередача

Описание:
Редакция телеканала "Время" представляет почти что не используемую до тех пор документальную хронику событий августа 1991 года. Эти материалы попали в архивы Гостелерадиофонда из различных источников: от различных телекомпаний, репортеров и частных лиц. Вы познакомитесь с хроникой событий, увидите бесценные кадры, снятые любительскими камерами...

Августовский мятеж 1991 года уже ушел в историю, но для россиян эти три дня и две ночи имеют своё определение, своё индивидуальное значение. В эти дни, 20 лет назад, в СССР произошла попытка государственного переворота комитетом по чрезвычайным ситуациям, ГКЧП. Эта попытка впервые в стране объединила гражданское общество вокруг защиты выбранного пути от авторитарного к демократическому государству.

Продолжительность: 00:28:00

Видеокодек: DivX 5
Битрейт видео: ~1494 Кбит/сек
Размер кадра: 704х528
Качество видео: SATRip
Аудиокодек: MP3
Битрейт аудио: 128 Кбит/сек
Общее
Полное имя: GKCHP.avi
Формат: AVI
Формат/Информация: Audio Video Interleave
Размер файла: 334 Мбайт
Продолжительность: 28 м.
Общий поток: 1631 Кбит/сек
Библиотека кодирования: VirtualDub build 29808/release

Видео
Идентификатор: 0
Формат: MPEG-4 Visual
Параметр BVOP формата: 1
Параметр QPel формата: Нет
Параметр GMC формата: Без точки перехода
Параметр матрицы формата: Default (H.263)
Режим смешивания: Сжатый битовый поток
Идентификатор кодека: DX50
Идентификатор кодека/Подсказка: DivX 5
Продолжительность: 28 м.
Битрейт: 1494 Кбит/сек
Ширина: 704 пикс.
Высота: 528 пикс.
Соотношение сторон: 4:3
Частота кадров: 25,000 кадр/сек
Цветовое пространство: YUV
Подвыборка цветности: 4:2:0
Битовая глубина: 8 бит
Тип развёртки: Прогрессивная
Метод сжатия: С потерями
Бит/(Пиксели*Кадры): 0.161
Размер потока: 306 Мбайт (92%)
Библиотека кодирования: DivX 6.8.5 (UTC 2009-08-20)

Аудио
Идентификатор: 1
Формат: MPEG Audio
Версия формата: Version 1
Профиль формата: Layer 3
Идентификатор кодека: 55
Идентификатор кодека/Подсказка: MP3
Продолжительность: 28 м.
Вид битрейта: Постоянный
Битрейт: 128 Кбит/сек
Каналы: 1 канал
Частота: 48,0 КГц
Метод сжатия: С потерями
Размер потока: 26,2 Мбайт (8%)
Выравнивание: Разделение по промежуткам
Продолжительность промежутка: 40мс. (1,00 видеокадр)
Время предзагрузки промежутка: 500 ms
Скриншоты:



Время раздачи: 24/7До 5-ти скачавших

Постеры

Соцсети

 

Статистика

Автор: master
Добавлен: 05 фев 2012, 23:29
Размер: 334.23 МБ
Размер: 350 468 078 байт
Сидеров: 0
Личеров: 0
Скачали: 0
Здоровье: 0%
Скорость скачивания: 0 байт/сек
Скорость раздачи: 0 байт/сек
Последний сидер: 3 года 5 месяцев 28 дней 16 часов 9 минут 27 секунд назад
Последний личер: Нет
Приватный: Нет (DHT включён)
Скачать торрент
Скачать торрент
[ Размер 13.77 КБ / Просмотров 2 ]

Поделиться


Вернуться в История Руси, России