Видео


Сообщение

Видео Собственная гордость - Военно-промышленный комплекс (Эфир от 21-08-2011) (2011) SATRip

Сообщение master » 05 фев 2012, 23:30

Собственная гордость - Военно-промышленный комплекс (Эфир от 21-08-2011) (2011) SATRip
Название: Собственная гордость - Военно-промышленный комплекс (Эфир от 21-08-2011)

Режиссер / Телекомпания: Сергей Краус / НТВ
Год выпуска: 2011
Жанр: Документальный, Телепередача

Описание:
Строить советскую оборонную промышленность начали еще в 30-е, в период сталинской индустриализации, но военно-промышленный комплекс как огромный конгломерат научных, производственных, политических и человеческих ресурсов сформировался в годы холодной войны. В этих условиях перед советской «оборонкой» стояла непростая задача — догнать и перегнать Соединенные Штаты Америки, страну, несравнимо меньше пострадавшую во Второй мировой войне и располагавшую большими экономическими ресурсами…

Продолжительность: 00:43:51

Видеокодек: XVID
Битрейт видео: 1495 kbps
Размер кадра: 640x480
Качество видео: SATRip
Аудиокодек: MP3
Битрейт аудио: 48 kHz, MPEG Layer 3, 2 ch, ~128.00 kbps avg

Скриншоты:


Время раздачи: Раздача круглосуточная до появления 3 - 5 сидов. Дальше по возможности.
Общее
Полное имя: E:\VIDEO\Документальное\Sobstvennaya.gordost.VPK.(21.08.2011).SATRip.avi
Формат: AVI
Формат/Информация: Audio Video Interleave
Размер файла: 512 Мбайт
Продолжительность: 43 м.
Общий поток: 1633 Кбит/сек
Библиотека кодирования: VirtualDub build 32842/release

Видео
Идентификатор: 0
Формат: MPEG-4 Visual
Профиль формата: Advanced Simple@L5
Параметр BVOP формата: 2
Параметр QPel формата: Нет
Параметр GMC формата: Без точки перехода
Параметр матрицы формата: Default (H.263)
Режим смешивания: Сжатый битовый поток
Идентификатор кодека: XVID
Идентификатор кодека/Подсказка: XviD
Продолжительность: 43 м.
Битрейт: 1495 Кбит/сек
Ширина: 640 пикс.
Высота: 480 пикс.
Соотношение сторон: 4:3
Частота кадров: 25,000 кадр/сек
Цветовое пространство: YUV
Подвыборка цветности: 4:2:0
Битовая глубина: 8 бит
Тип развёртки: Прогрессивная
Метод сжатия: С потерями
Бит/(Пиксели*Кадры): 0.195
Размер потока: 469 Мбайт (92%)
Библиотека кодирования: XviD 1.2.1 (UTC 2008-12-04)

Аудио
Идентификатор: 1
Формат: MPEG Audio
Версия формата: Version 1
Профиль формата: Layer 3
Режим: Joint stereo
Расширение режима: MS Stereo
Идентификатор кодека: 55
Идентификатор кодека/Подсказка: MP3
Продолжительность: 43 м.
Вид битрейта: Постоянный
Битрейт: 128 Кбит/сек
Каналы: 2 канала
Частота: 48,0 КГц
Метод сжатия: С потерями
Размер потока: 40,2 Мбайт (8%)
Выравнивание: Разделение по промежуткам
Продолжительность промежутка: 40мс. (1,00 видеокадр)
Время предзагрузки промежутка: 500 ms

Постеры

Соцсети

 

Статистика

Автор: master
Добавлен: 05 фев 2012, 23:30
Размер: 512.2 МБ
Размер: 537 080 526 байт
Сидеров: 0
Личеров: 0
Скачали: 0
Здоровье: 0%
Скорость скачивания: 0 байт/сек
Скорость раздачи: 0 байт/сек
Последний сидер: Нет
Последний личер: 3 года 5 месяцев 15 дней 19 часов 30 минут 51 секунду назад
Приватный: Нет (DHT включён)
Скачать торрент
Скачать торрент
[ Размер 10.89 КБ / Просмотров 2 ]

Поделиться


Вернуться в История Руси, России