Видео


Сообщение

Видео Цикл "Великая Отечественная: вспомнить правду" (2011) TVRip

Сообщение master » 05 фев 2012, 23:35

Цикл "Великая Отечественная: вспомнить правду" (2011) TVRip
Название: Цикл "Великая Отечественная: вспомнить правду"

Режиссер / Телекомпания: Кирилл Борисович Назаренко
Год выпуска: 2011
Жанр: Документальный

Описание:
Данный цикл, в основном, посвящен развенчиванию мифов о Великой Отечественной войне, роли СССР во Второй Мировой войне. Трактовка событий вполне объективна, не впадает в крайности.

Рассказывает кандидат исторических наук, доцент
Кирилл Борисович Назаренко.

Продолжительность: 02:28:13

Видеокодек: AVC
Битрейт видео: ~425 кбит\сек
Размер кадра: 640х480
Качество видео: TVRip
Аудиокодек: AAC
Битрейт аудио: 126 кбит\сек VBR

Назаренко Кирилл Борисович. Родился 21 июля 1976 г. в г. Выборге Ленинградской обл. Окончил в 1993 г. школу-гимназию №67 с углублённым изучением испанского языка. В 1998 г. окончил Исторический факультет Санкт-Петербургского государственного университет (специализировался по кафедре Русской истории). В 2001 г. защитил кандидатскую диссертацию по теме: «Морское министерство России в 1905-1914 гг.» Диплом и кандидатская диссертация написаны под руководством д.и.н., проф. М.Ф. Флоринского. С 2002 г. работает на Историческом факультете СПбГУ ассистентом, старшим преподавателем, доцентом (с 2007 г.) кафедры Источниковедения истории России. В 2006-2009 гг. работал ответственным секретарём Факультетской приёмной комиссии Исторического факультета СПбГУ. Опубликовал 38 научных работ, в том числе 3 монографии, 3 учебно-методических пособия. Области научных интересов – история военно-морского флота, история фортификации, политическая история России ХХ в.

Основные опубликованные научные работы:

МОНОГРАФИИ

1. «Мозг» флота России: от Цусимы до Первой мировой войны. СПб., 2006. 13,6 печ.л.

2. The Authority and the reforms in the Naval partment of Russia on the eve of the First World War - Власть и реформы в морском ведомстве России накануне Перовой мировой войны. N-Y., 2008. 13,8 печ.л.

МЕТОДИЧЕСКИЕ И УЧЕБНЫЕ ПОСОБИЯ

3. Организационная структура флота России в XVIII—начале ХХ в. в исторических источниках / Специальные курсы по источниковедению истории России. (в надзаг.: Северо-западная академия государственной службы (филиал в г.Выборг)) М.; СПб., 2006. С. 58-98. 1,7 печ.л.

4. Организация морского ведомства России начала ХХ в. в исторических источниках: Учебно-методическое пособие. СПб., 2005. 3,15 печ.л.

СТАТЬИ

1. Полевые укрепления XVIII в. на Карельском перешейке. / Цитадель. 1998. №1 (6) Сс.19-23. (в соавт. с В.И.Смирновым).

2. Карельский укреплённый район: 1928-1939. / Принимай нас, Суоми-красавица! «Освободительный» поход в Финляндию 1939-1940 гг. Ч.2. СПб., 2000. С.116-117.

3. Организация управления флотами крупнейших морских держав накануне русско-японской войны. / Клио. 2001. №2(14). Сс. 153-157.

4. Оборонительные сооружения на северных подступах к Ленинграду в 30-е гг. Карельский укреплённый район. / Война народная: люди, события, уроки. 1941-1945 гг. Материалы межвузовской научной конференции. СПб., 2002. Сс.24-33.

5. Делопроизводственная документация как источник по истории Морского министерства России в 1905-1914 гг. / Историография и источниковедение отечественной истории: сборник научных сообщений. Вып.2. СПб.,2003. С.109-128.

6. Реорганизация морского управления в России в 1905-1914 гг. / Мавродинские чтения. СПб., 2002. Сс.270-275.

Морские ведомства великих держав в начале ХХ в. / Российская государственность: история и современность. СПб., 2003. Сс.303-313. 0,6 печ.л.
8. Боевые действия на Карельском перешейке в годы Великой Отечественной войны. / Состояние и перспективы социально-экономического развития Северо-запада России. Тезисы докладов 5-й межвузовской научной студенческой конференции (18-19 мая 2004 года). Выборг, 2004. Сс. 3-10.

9. Русская публицистика о военно-морском флоте в 1905-1914 гг.: «Какой флот нужен России?» / Историография и источниковедение отечественной истории: сборник научных сообщений. Вып.3. СПб.,2004. С.156-167.

10. Новый документ о кругосветном плавании корабля «Суворов» в 1813-1816 гг. под командой М.П.Лазарева / Историография и источниковедение отечественной истории: Сборник научных статей. Вып. 4. СПб., 2005. С.115-128.

11. К вопросу о влиянии военного фактора на архитектурно-планировочную структуру малых городов Петербургской губернии в XVIII – середине XIX вв. / Историография и источниковедение отечественной истории: Сборник научных статей. Вып. 4. СПб., 2005. С.129-137.

12. К вопросу о развитии фортификационных идей в СССР в 20-30-х гг. ХХ в. / Чтения по военной истории. СПб., 2006. С.261-270.

13. Рецензия на книгу воспоминаний: Ги Сайер. «Последний солдат Третьего рейха» / Новый Часовой. 2006. №17-18. С.362-373.

14. Первая форма Красного флота: неосуществлённый проект 1919 года / Гангут. 2007. №43. С.138-146.

15. К вопросу о численности и судьбе офицерского корпуса русского флота в 1917 – 1921 гг. / Вестник Санкт-Петербургского государственного университета. Серия 2: История. Выпуск 4. 2007. Декабрь. С.105-117.

16. К вопросу о принципах организационного строительства Красного флота в начале 20-х годов / Россия в ХХ веке: проблемы политической, экономической и социальной истории. СПб., 2008. С.136-144.

17. К вопросу о политическом выборе офицеров русского флота в 1917 г. / Историография и источниковедение истории России. Сборник научных статей. Выпуск 5. СПб., 2009. с.419-430.
Общее
Полное имя : E:\Users\Евгений\Downloads\Torrent\Великая Отечественная Война\vov1-pred-new.flv
Формат : Flash Video
Размер файла : 139 Мбайт
Продолжительность : 33 м.
Общий поток : 572 Кбит/сек
Пометившая программа : Yet Another Metadata Injector for FLV - Version 1.4

Видео
Формат : AVC
Формат/Информация : Advanced Video Codec
Профиль формата :
Параметр CABAC формата : Да
Параметр ReFrames формата : 8 кадров
Идентификатор кодека : 7
Продолжительность : 33 м.
Битрейт : 425 Кбит/сек
Ширина : 640 пикс.
Высота : 480 пикс.
Соотношение сторон : 4:3
Режим частоты кадров : Постоянный
Частота кадров : 25,000 кадр/сек
Цветовое пространство : YUV
Подвыборка цветности : 4:2:0
Битовая глубина : 8 бит
Тип развёртки : Прогрессивная
Бит/(Пиксели*Кадры) : 0.055
Размер потока : 106 Мбайт (76%)
Библиотека кодирования : x264 core 107
Настройки программы : cabac=1 / ref=8 / deblock=1:0:0 / analyse=0x3:0x133 / me=umh / subme=9 / psy=1 / psy_rd=1.00:0.00 / mixed_ref=1 / me_range=16 / chroma_me=1 / trellis=2 / 8x8dct=1 / cqm=0 / deadzone=21,11 / fast_pskip=1 / chroma_qp_offset=-2 / threads=6 / sliced_threads=0 / nr=0 / decimate=1 / interlaced=0 / constrained_intra=0 / bframes=3 / b_pyramid=2 / b_adapt=2 / b_bias=0 / direct=3 / weightb=1 / open_gop=0 / weightp=2 / keyint=18 / keyint_min=10 / scenecut=40 / intra_refresh=0 / rc_lookahead=60 / rc=crf / mbtree=1 / crf=22.5 / qcomp=0.60 / qpmin=0 / qpmax=51 / qpstep=4 / vbv_maxrate=440 / vbv_bufsize=1200 / crf_max=0.0 / ip_ratio=1.41 / aq=1:1.00 / nal_hrd=none

Аудио
Формат : AAC
Формат/Информация : Advanced Audio Codec
Профиль формата : LC
Идентификатор кодека : 10
Продолжительность : 33 м.
Битрейт : 126 Кбит/сек
Каналы : 2 канала
Расположение каналов : Front: L R
Частота : 44,1 КГц
Метод сжатия : С потерями
Размер потока : 32,1 Мбайт (23%)

Общее
Полное имя : E:\Users\Евгений\Downloads\Torrent\Великая Отечественная Война\vov10.flv
Формат : Flash Video
Размер файла : 122 Мбайт
Продолжительность : 29 м.
Общий поток : 578 Кбит/сек
Пометившая программа : Yet Another Metadata Injector for FLV - Version 1.4

Видео
Формат : AVC
Формат/Информация : Advanced Video Codec
Профиль формата :
Параметр CABAC формата : Да
Параметр ReFrames формата : 8 кадров
Идентификатор кодека : 7
Продолжительность : 29 м.
Битрейт : 431 Кбит/сек
Ширина : 640 пикс.
Высота : 480 пикс.
Соотношение сторон : 4:3
Режим частоты кадров : Постоянный
Частота кадров : 25,000 кадр/сек
Цветовое пространство : YUV
Подвыборка цветности : 4:2:0
Битовая глубина : 8 бит
Тип развёртки : Прогрессивная
Бит/(Пиксели*Кадры) : 0.056
Размер потока : 93,4 Мбайт (77%)
Библиотека кодирования : x264 core 107

Аудио
Формат : AAC
Формат/Информация : Advanced Audio Codec
Профиль формата : LC
Идентификатор кодека : 10
Продолжительность : 29 м.
Битрейт : 126 Кбит/сек
Каналы : 2 канала
Расположение каналов : Front: L R
Частота : 44,1 КГц
Метод сжатия : С потерями
Размер потока : 27,9 Мбайт (23%)

Общее
Полное имя : E:\Users\Евгений\Downloads\Torrent\Великая Отечественная Война\vov11.flv
Формат : Flash Video
Размер файла : 64,9 Мбайт
Продолжительность : 16 м.
Общий поток : 566 Кбит/сек
Пометившая программа : Yet Another Metadata Injector for FLV - Version 1.4

Видео
Формат : AVC
Формат/Информация : Advanced Video Codec
Профиль формата :
Параметр CABAC формата : Да
Параметр ReFrames формата : 8 кадров
Идентификатор кодека : 7
Продолжительность : 16 м.
Битрейт : 419 Кбит/сек
Ширина : 640 пикс.
Высота : 480 пикс.
Соотношение сторон : 4:3
Режим частоты кадров : Постоянный
Частота кадров : 25,000 кадр/сек
Цветовое пространство : YUV
Подвыборка цветности : 4:2:0
Битовая глубина : 8 бит
Тип развёртки : Прогрессивная
Бит/(Пиксели*Кадры) : 0.055
Размер потока : 49,4 Мбайт (76%)
Библиотека кодирования : x264 core 107

Аудио
Формат : AAC
Формат/Информация : Advanced Audio Codec
Профиль формата : LC
Идентификатор кодека : 10
Продолжительность : 16 м.
Битрейт : 126 Кбит/сек
Каналы : 2 канала
Расположение каналов : Front: L R
Частота : 44,1 КГц
Метод сжатия : С потерями
Размер потока : 15,2 Мбайт (23%)

Общее
Полное имя : E:\Users\Евгений\Downloads\Torrent\Великая Отечественная Война\vov2.flv
Формат : Flash Video
Размер файла : 92,6 Мбайт
Продолжительность : 26 м.
Общий поток : 498 Кбит/сек
Пометившая программа : Yet Another Metadata Injector for FLV - Version 1.4

Видео
Формат : AVC
Формат/Информация : Advanced Video Codec
Профиль формата :
Параметр CABAC формата : Да
Параметр ReFrames формата : 8 кадров
Идентификатор кодека : 7
Продолжительность : 26 м.
Битрейт : 352 Кбит/сек
Ширина : 640 пикс.
Высота : 480 пикс.
Соотношение сторон : 4:3
Режим частоты кадров : Постоянный
Частота кадров : 25,000 кадр/сек
Цветовое пространство : YUV
Подвыборка цветности : 4:2:0
Битовая глубина : 8 бит
Тип развёртки : Прогрессивная
Бит/(Пиксели*Кадры) : 0.046
Размер потока : 67,5 Мбайт (73%)
Библиотека кодирования : x264 core 107

Аудио
Формат : AAC
Формат/Информация : Advanced Audio Codec
Профиль формата : LC
Идентификатор кодека : 10
Продолжительность : 26 м.
Битрейт : 126 Кбит/сек
Каналы : 2 канала
Расположение каналов : Front: L R
Частота : 44,1 КГц
Метод сжатия : С потерями
Размер потока : 24,6 Мбайт (27%)

Общее
Полное имя : E:\Users\Евгений\Downloads\Torrent\Великая Отечественная Война\vov3.flv
Формат : Flash Video
Размер файла : 98,0 Мбайт
Продолжительность : 26 м.
Общий поток : 513 Кбит/сек
Пометившая программа : Yet Another Metadata Injector for FLV - Version 1.4

Видео
Формат : AVC
Формат/Информация : Advanced Video Codec
Профиль формата :
Параметр CABAC формата : Да
Параметр ReFrames формата : 8 кадров
Идентификатор кодека : 7
Продолжительность : 26 м.
Битрейт : 368 Кбит/сек
Ширина : 640 пикс.
Высота : 480 пикс.
Соотношение сторон : 4:3
Режим частоты кадров : Постоянный
Частота кадров : 25,000 кадр/сек
Цветовое пространство : YUV
Подвыборка цветности : 4:2:0
Битовая глубина : 8 бит
Тип развёртки : Прогрессивная
Бит/(Пиксели*Кадры) : 0.048
Размер потока : 72,3 Мбайт (74%)
Библиотека кодирования : x264 core 107

Аудио
Формат : AAC
Формат/Информация : Advanced Audio Codec
Профиль формата : LC
Идентификатор кодека : 10
Продолжительность : 26 м.
Битрейт : 126 Кбит/сек
Каналы : 2 канала
Расположение каналов : Front: L R
Частота : 44,1 КГц
Метод сжатия : С потерями
Размер потока : 25,3 Мбайт (26%)

Общее
Полное имя : E:\Users\Евгений\Downloads\Torrent\Великая Отечественная Война\vov4.flv
Формат : Flash Video
Размер файла : 108 Мбайт
Продолжительность : 28 м.
Общий поток : 531 Кбит/сек
Пометившая программа : Yet Another Metadata Injector for FLV - Version 1.4

Видео
Формат : AVC
Формат/Информация : Advanced Video Codec
Профиль формата :
Параметр CABAC формата : Да
Параметр ReFrames формата : 8 кадров
Идентификатор кодека : 7
Продолжительность : 28 м.
Битрейт : 385 Кбит/сек
Ширина : 640 пикс.
Высота : 480 пикс.
Соотношение сторон : 4:3
Режим частоты кадров : Постоянный
Частота кадров : 25,000 кадр/сек
Цветовое пространство : YUV
Подвыборка цветности : 4:2:0
Битовая глубина : 8 бит
Тип развёртки : Прогрессивная
Бит/(Пиксели*Кадры) : 0.050
Размер потока : 80,7 Мбайт (75%)
Библиотека кодирования : x264 core 107

Аудио
Формат : AAC
Формат/Информация : Advanced Audio Codec
Профиль формата : LC
Идентификатор кодека : 10
Продолжительность : 28 м.
Битрейт : 126 Кбит/сек
Каналы : 2 канала
Расположение каналов : Front: L R
Частота : 44,1 КГц
Метод сжатия : С потерями
Размер потока : 26,9 Мбайт (25%)

Общее
Полное имя : E:\Users\Евгений\Downloads\Torrent\Великая Отечественная Война\vov5.flv
Формат : Flash Video
Размер файла : 119 Мбайт
Продолжительность : 33 м.
Общий поток : 504 Кбит/сек
Пометившая программа : Yet Another Metadata Injector for FLV - Version 1.4

Видео
Формат : AVC
Формат/Информация : Advanced Video Codec
Профиль формата :
Параметр CABAC формата : Да
Параметр ReFrames формата : 8 кадров
Идентификатор кодека : 7
Продолжительность : 33 м.
Битрейт : 358 Кбит/сек
Ширина : 640 пикс.
Высота : 480 пикс.
Соотношение сторон : 4:3
Режим частоты кадров : Постоянный
Частота кадров : 25,000 кадр/сек
Цветовое пространство : YUV
Подвыборка цветности : 4:2:0
Битовая глубина : 8 бит
Тип развёртки : Прогрессивная
Бит/(Пиксели*Кадры) : 0.047
Размер потока : 87,5 Мбайт (73%)
Библиотека кодирования : x264 core 107

Аудио
Формат : AAC
Формат/Информация : Advanced Audio Codec
Профиль формата : LC
Идентификатор кодека : 10
Продолжительность : 33 м.
Битрейт : 126 Кбит/сек
Каналы : 2 канала
Расположение каналов : Front: L R
Частота : 44,1 КГц
Метод сжатия : С потерями
Размер потока : 31,4 Мбайт (26%)

Общее
Полное имя : E:\Users\Евгений\Downloads\Torrent\Великая Отечественная Война\vov6.flv
Формат : Flash Video
Размер файла : 105 Мбайт
Продолжительность : 28 м.
Общий поток : 520 Кбит/сек
Пометившая программа : Yet Another Metadata Injector for FLV - Version 1.4

Видео
Формат : AVC
Формат/Информация : Advanced Video Codec
Профиль формата :
Параметр CABAC формата : Да
Параметр ReFrames формата : 8 кадров
Идентификатор кодека : 7
Продолжительность : 28 м.
Битрейт : 374 Кбит/сек
Ширина : 640 пикс.
Высота : 480 пикс.
Соотношение сторон : 4:3
Режим частоты кадров : Постоянный
Частота кадров : 25,000 кадр/сек
Цветовое пространство : YUV
Подвыборка цветности : 4:2:0
Битовая глубина : 8 бит
Тип развёртки : Прогрессивная
Бит/(Пиксели*Кадры) : 0.049
Размер потока : 78,0 Мбайт (74%)
Библиотека кодирования : x264 core 107

Аудио
Формат : AAC
Формат/Информация : Advanced Audio Codec
Профиль формата : LC
Идентификатор кодека : 10
Продолжительность : 28 м.
Битрейт : 126 Кбит/сек
Каналы : 2 канала
Расположение каналов : Front: L R
Частота : 44,1 КГц
Метод сжатия : С потерями
Размер потока : 26,8 Мбайт (25%)

Общее
Полное имя : E:\Users\Евгений\Downloads\Torrent\Великая Отечественная Война\vov7.flv
Формат : Flash Video
Размер файла : 123 Мбайт
Продолжительность : 32 м.
Общий поток : 533 Кбит/сек
Пометившая программа : Yet Another Metadata Injector for FLV - Version 1.4

Видео
Формат : AVC
Формат/Информация : Advanced Video Codec
Профиль формата :
Параметр CABAC формата : Да
Параметр ReFrames формата : 8 кадров
Идентификатор кодека : 7
Продолжительность : 32 м.
Битрейт : 387 Кбит/сек
Ширина : 640 пикс.
Высота : 480 пикс.
Соотношение сторон : 4:3
Режим частоты кадров : Постоянный
Частота кадров : 25,000 кадр/сек
Цветовое пространство : YUV
Подвыборка цветности : 4:2:0
Битовая глубина : 8 бит
Тип развёртки : Прогрессивная
Бит/(Пиксели*Кадры) : 0.050
Размер потока : 91,6 Мбайт (75%)
Библиотека кодирования : x264 core 107

Аудио
Формат : AAC
Формат/Информация : Advanced Audio Codec
Профиль формата : LC
Идентификатор кодека : 10
Продолжительность : 32 м.
Битрейт : 126 Кбит/сек
Каналы : 2 канала
Расположение каналов : Front: L R
Частота : 44,1 КГц
Метод сжатия : С потерями
Размер потока : 30,4 Мбайт (25%)

Общее
Полное имя : E:\Users\Евгений\Downloads\Torrent\Великая Отечественная Война\vov8.flv
Формат : Flash Video
Размер файла : 116 Мбайт
Продолжительность : 28 м.
Общий поток : 578 Кбит/сек
Пометившая программа : Yet Another Metadata Injector for FLV - Version 1.4

Видео
Формат : AVC
Формат/Информация : Advanced Video Codec
Профиль формата :
Параметр CABAC формата : Да
Параметр ReFrames формата : 8 кадров
Идентификатор кодека : 7
Продолжительность : 28 м.
Битрейт : 431 Кбит/сек
Ширина : 640 пикс.
Высота : 480 пикс.
Соотношение сторон : 4:3
Режим частоты кадров : Постоянный
Частота кадров : 25,000 кадр/сек
Цветовое пространство : YUV
Подвыборка цветности : 4:2:0
Битовая глубина : 8 бит
Тип развёртки : Прогрессивная
Бит/(Пиксели*Кадры) : 0.056
Размер потока : 89,1 Мбайт (77%)
Библиотека кодирования : x264 core 107

Аудио
Формат : AAC
Формат/Информация : Advanced Audio Codec
Профиль формата : LC
Идентификатор кодека : 10
Продолжительность : 28 м.
Битрейт : 126 Кбит/сек
Каналы : 2 канала
Расположение каналов : Front: L R
Частота : 44,1 КГц
Метод сжатия : С потерями
Размер потока : 26,6 Мбайт (23%)

Общее
Полное имя : E:\Users\Евгений\Downloads\Torrent\Великая Отечественная Война\vov9.flv
Формат : Flash Video
Размер файла : 74,5 Мбайт
Продолжительность : 18 м.
Общий поток : 576 Кбит/сек
Пометившая программа : Yet Another Metadata Injector for FLV - Version 1.4

Видео
Формат : AVC
Формат/Информация : Advanced Video Codec
Профиль формата :
Параметр CABAC формата : Да
Параметр ReFrames формата : 8 кадров
Идентификатор кодека : 7
Продолжительность : 18 м.
Битрейт : 429 Кбит/сек
Ширина : 640 пикс.
Высота : 480 пикс.
Соотношение сторон : 4:3
Режим частоты кадров : Постоянный
Частота кадров : 25,000 кадр/сек
Цветовое пространство : YUV
Подвыборка цветности : 4:2:0
Битовая глубина : 8 бит
Тип развёртки : Прогрессивная
Бит/(Пиксели*Кадры) : 0.056
Размер потока : 57,1 Мбайт (77%)
Библиотека кодирования : x264 core 107

Аудио
Формат : AAC
Формат/Информация : Advanced Audio Codec
Профиль формата : LC
Идентификатор кодека : 10
Продолжительность : 18 м.
Битрейт : 125 Кбит/сек
Каналы : 2 канала
Расположение каналов : Front: L R
Частота : 44,1 КГц
Метод сжатия : С потерями
Размер потока : 17,1 Мбайт (23%)
Скриншоты:



Время раздачи: с 22.00 до 9.00, по возможности - круглосуточно

Постеры

Соцсети

 

Вернуться в История Руси, России



Кто сейчас на конференции

Сейчас эту тему просматривают: CCBot и гости: 0