Видео


Сообщение

Видео Русские цари [14 серий из 14] (2011) [H.264] DVDRip

Сообщение master » 05 фев 2012, 23:35

Русские цари [14 серий из 14] (2011) [H.264] DVDRip
Русское название: Русские цари
Режиссер / Телекомпания: Карен Адамян, Россия, Berg Sound
Год выпуска: 2011
Жанр: Документальный

Описание:
Царь - это основной титул монархов Русского царства, начиная с 1547 года. Официально первым царем именовался Иоанн IV Грозный, а последним был Петр I. Но как полуофициальный титул он сохранился за русскими правителями вплоть до революции 1917 года.

Продолжительность: 14 х ~ 00:42:00

Видеокодек: MPEG-4 AVC/H.264
Битрейт видео: 1300 Кбит/сек
Размер кадра: 720x576@1024x576
Качество видео: DVDRip-AVC
Аудиокодек: AC3 2.0
Битрейт аудио: 192 Кбит/сек
Общее
Уникальный идентификатор: 264396956853283370216834212620997720984 (0xC6E9006B890F5DDE8BC02FE780577B98)
Полное имя: D:\Razdachi\Raznoe\Rysskie.cari.(14.seriy.iz.14).2011.x264.DVDRip(AVC).BEARGRIZLI\Nikolay.II.(14.seriya.iz.14).2011.x264.DVDRip(AVC).BEARGRIZLI.mkv
Формат: Matroska
Размер файла: 606 Мбайт
Продолжительность: 56 м.
Общий поток: 1497 Кбит/сек
Программа кодирования: HandBrake 0.9.5
Библиотека кодирования: libmkv 0.6.4.1

Видео
Идентификатор: 1
Формат: AVC
Формат/Информация: Advanced Video Codec
Профиль формата:
Параметр CABAC формата: Да
Параметр ReFrames формата: 4 кадры
Идентификатор кодека: V_MPEG4/ISO/AVC
Продолжительность: 56 м.
Битрейт: 1300 Кбит/сек
Ширина: 720 пикс.
Высота: 576 пикс.
Соотношение сторон: 16:9
Режим частоты кадров: Переменный
Частота кадров: 25,000 кадр/сек
Стандарт вещания: PAL
Цветовое пространство: YUV
Подвыборка цветности: 4:2:0
Битовая глубина: 8 бит
Тип развёртки: Прогрессивная
Бит/(Пиксели*Кадры): 0.125
Размер потока: 517 Мбайт (85%)
Библиотека кодирования: x264 core 112
Настройки программы: cabac=1 / ref=2 / deblock=1:0:0 / analyse=0x1:0x111 / me=hex / subme=6 / psy=1 / psy_rd=1.00:0.00 / mixed_ref=0 / me_range=16 / chroma_me=1 / trellis=0 / 8x8dct=0 / cqm=0 / deadzone=21,11 / fast_pskip=1 / chroma_qp_offset=-2 / threads=6 / sliced_threads=0 / nr=0 / decimate=1 / interlaced=0 / constrained_intra=0 / bframes=2 / b_pyramid=2 / b_adapt=1 / b_bias=0 / direct=1 / weightb=0 / open_gop=0 / weightp=2 / keyint=250 / keyint_min=25 / scenecut=40 / intra_refresh=0 / rc_lookahead=40 / rc=2pass / mbtree=1 / bitrate=1300 / ratetol=1.0 / qcomp=0.60 / qpmin=3 / qpmax=51 / qpstep=4 / cplxblur=20.0 / qblur=0.5 / ip_ratio=1.40 / aq=1:1.00
Язык: English
Основные цвета: BT.601-6 525, BT.1358 525, BT.1700 NTSC, SMPTE 170M
Характеристики трансфера: BT.709-5, BT.1361
Коэффициенты матрицы: BT.601-6 525, BT.1358 525, BT.1700 NTSC, SMPTE 170M

Аудио
Идентификатор: 2
Формат: AC-3
Формат/Информация: Audio Coding 3
Расширение режима: CM (complete main)
Идентификатор кодека: A_AC3
Продолжительность: 56 м.
Вид битрейта: Постоянный
Битрейт: 192 Кбит/сек
Канал(ы): 2 канала(ов)
Расположение каналов: Front: L R
Частота: 48,0 КГц
Битовая глубина: 16 бит
Метод сжатия: С потерями
Размер потока: 77,8 Мбайт (13%)
01. Иван IV Васильевич
02. Борис Годунов
03. Михаил Федорович
04. Алексей Михайлович
05. Петр I Великий
06. Анна Иоанновна
07. Елизавета Петровна
08. Екатерина II Великая
09. Павел I Петрович
10. Александр I Павлович
11. Николай I Павлович
12. Александр II Николаевич
13. Александр III Александрович
14. Николай II Александрович
Скриншоты:


Другие раздачи этого фильма

Rip by BEARGRIZLI


Время раздачи: С 9:00 до 23:00 по Киеву

Постеры

Соцсети

 

Вернуться в История Руси, России



Кто сейчас на конференции

Сейчас эту тему просматривают: CCBot и гости: 0