Видео


Сообщение

Видео Суворов (2006) DVD5

Сообщение master » 05 фев 2012, 23:37

Суворов (2006) DVD5
Название: Суворов

Режиссер: Алексей Денисов
Год выпуска: 2006
Жанр: Документальный

Описание:
Документальный фильм из цикла "Царская Россия". Великий русский полководец Александр Васильевич Суворов - поистине легендарная личность мирового значения. Подвигами его написана история конца VIII века. Доблестному взятию крепости Измаил поражались не только наши соотечественники, но и военачальники всей Европы. Способность четко анализировать обстановку, быстрота и натиск – вот те качества, которые помогали Суворову в бою и благодаря которым он по праву считается примером настоящего мужества и отваги в тактике ведения боя.
Суворов А. В. одержал победы во всех битвах и компаниях. Пройдя путь от рядового солдата до генералиссимуса, Александр Васильевич понимал солдата как никто другой из офицеров русской армии. Боевой дух Суворова является примером и для нынешних Вооруженных сил России. Подвиги его бессмертны. Заслуги грандиозны.

Участники: В. Лопатин, М. Герц, Вальтер Геллер, сотрудники исторического музея

Продолжительность: 00:43:55

Видеокодек: MPEG 2 PAL
Битрейт видео: 5772 Кбит/сек, 25 fps
Размер кадра: 720x576 Standard Screen
Качество видео: DVD5
Аудиокодек: Dolby Digital 2.0
Битрейт аудио: 192 kbps, 48 kHz
Общее
Полное имя: C:\films\Суворов\VIDEO_TS\VIDEO_TS.BUP
Формат: DVD Video
Профиль формата: Menu
Размер файла: 12,0 Кбайт
Режим общего битрейта: Переменный

Видео
Идентификатор: 224 (0xE0)
Формат: MPEG Video
Версия формата: Version 2
Вид битрейта: Переменный
Ширина: 720 пикселей
Высота: 576 пикселей
Соотношение сторон: 4:3
Частота кадров: 25,000 кадров/сек
Стандарт вещания: PAL
Метод сжатия: С потерями

Текст
Формат: RLE
Формат/Информация: Run-length encoding
Битовая глубина: 2 бит

Общее
Полное имя: C:\films\Суворов\VIDEO_TS\VIDEO_TS.IFO
Формат: DVD Video
Профиль формата: Menu
Размер файла: 12,0 Кбайт
Режим общего битрейта: Переменный

Видео
Идентификатор: 224 (0xE0)
Формат: MPEG Video
Версия формата: Version 2
Вид битрейта: Переменный
Ширина: 720 пикселей
Высота: 576 пикселей
Соотношение сторон: 4:3
Частота кадров: 25,000 кадров/сек
Стандарт вещания: PAL
Метод сжатия: С потерями

Текст
Формат: RLE
Формат/Информация: Run-length encoding
Битовая глубина: 2 бит

Общее
Полное имя: C:\films\Суворов\VIDEO_TS\VIDEO_TS.VOB
Формат: MPEG-PS
Размер файла: 10,0 Кбайт
Продолжительность: 40 мс.
Общий поток: 2048 Кбит/сек

Видео
Идентификатор: 224 (0xE0)
Формат: MPEG Video
Версия формата: Version 2
Профиль формата: Main@Main
Параметр BVOP формата: Нет
Параметр матрицы формата: Выборочная
Продолжительность: 40 мс.
Максимальный битрейт: 9000 Кбит/сек
Ширина: 720 пикселей
Высота: 576 пикселей
Соотношение сторон: 4:3
Частота кадров: 25,000 кадров/сек
Стандарт вещания: PAL
Цветовое пространство: YUV
Субдискретизация насыщенности: 4:2:0
Битовая глубина: 8 бит
Тип развёртки: Прогрессивная
Порядок развёртки: Верхнее поле первое
Метод сжатия: С потерями
Основные цвета: SMPTE 170M
Характеристики трансфера: SMPTE 170M
Коэффициенты матрицы: SMPTE 170M

Меню

Общее
Полное имя: C:\films\Суворов\VIDEO_TS\VTS_01_0.BUP
Формат: DVD Video
Профиль формата: Program
Размер файла: 38,0 Кбайт
Продолжительность: 43 м.
Режим общего битрейта: Переменный
Общий поток: 118 бит/сек

Видео
Идентификатор: 224 (0xE0)
Формат: MPEG Video
Версия формата: Version 2
Продолжительность: 43 м.
Вид битрейта: Переменный
Ширина: 720 пикселей
Высота: 576 пикселей
Соотношение сторон: 4:3
Частота кадров: 25,000 кадров/сек
Стандарт вещания: PAL
Метод сжатия: С потерями

Аудио
Идентификатор: 128 (0x80)
Формат: AC-3
Формат/Информация: Audio Coding 3
Продолжительность: 43 м.
Каналы: 2 канала
Частота: 48,0 КГц
Метод сжатия: С потерями

Меню
Продолжительность: 43 м.
00:00:00.000: Chapter 1
00:09:31.920: Chapter 2
00:20:22.800: Chapter 3
00:30:03.080: Chapter 4
00:38:55.960: Chapter 5
List (Audio): 0

Общее
Полное имя: C:\films\Суворов\VIDEO_TS\VTS_01_0.IFO
Формат: DVD Video
Профиль формата: Program
Размер файла: 38,0 Кбайт
Продолжительность: 43 м.
Режим общего битрейта: Переменный
Общий поток: 118 бит/сек

Видео
Идентификатор: 224 (0xE0)
Формат: MPEG Video
Версия формата: Version 2
Продолжительность: 43 м.
Вид битрейта: Переменный
Ширина: 720 пикселей
Высота: 576 пикселей
Соотношение сторон: 4:3
Частота кадров: 25,000 кадров/сек
Стандарт вещания: PAL
Метод сжатия: С потерями

Аудио
Идентификатор: 128 (0x80)
Формат: AC-3
Формат/Информация: Audio Coding 3
Продолжительность: 43 м.
Каналы: 2 канала
Частота: 48,0 КГц
Метод сжатия: С потерями

Меню
Продолжительность: 43 м.
00:00:00.000: Chapter 1
00:09:31.920: Chapter 2
00:20:22.800: Chapter 3
00:30:03.080: Chapter 4
00:38:55.960: Chapter 5
List (Audio): 0

Общее
Полное имя: C:\films\Суворов\VIDEO_TS\VTS_01_0.VOB
Формат: MPEG-PS
Размер файла: 10,0 Кбайт
Продолжительность: 40 мс.
Общий поток: 2048 Кбит/сек

Видео
Идентификатор: 224 (0xE0)
Формат: MPEG Video
Версия формата: Version 2
Профиль формата: Main@Main
Параметр BVOP формата: Нет
Параметр матрицы формата: Выборочная
Продолжительность: 40 мс.
Максимальный битрейт: 9000 Кбит/сек
Ширина: 720 пикселей
Высота: 576 пикселей
Соотношение сторон: 4:3
Частота кадров: 25,000 кадров/сек
Стандарт вещания: PAL
Цветовое пространство: YUV
Субдискретизация насыщенности: 4:2:0
Битовая глубина: 8 бит
Тип развёртки: Прогрессивная
Порядок развёртки: Верхнее поле первое
Метод сжатия: С потерями
Основные цвета: SMPTE 170M
Характеристики трансфера: SMPTE 170M
Коэффициенты матрицы: SMPTE 170M

Меню

Общее
Полное имя: C:\films\Суворов\VIDEO_TS\VTS_01_1.VOB
Формат: MPEG-PS
Размер файла: 1024 Мбайт
Продолжительность: 25 м.
Режим общего битрейта: Переменный
Общий поток: 5576 Кбит/сек

Видео
Идентификатор: 224 (0xE0)
Формат: MPEG Video
Версия формата: Version 2
Профиль формата: Main@Main
Параметр BVOP формата: Да
Параметр матрицы формата: Выборочная
Продолжительность: 25 м.
Вид битрейта: Переменный
Битрейт: 5273 Кбит/сек
Максимальный битрейт: 6000 Кбит/сек
Ширина: 720 пикселей
Высота: 576 пикселей
Соотношение сторон: 4:3
Частота кадров: 25,000 кадров/сек
Стандарт вещания: PAL
Цветовое пространство: YUV
Субдискретизация насыщенности: 4:2:0
Битовая глубина: 8 бит
Тип развёртки: Чересстрочная
Порядок развёртки: Нижнее поле первое
Метод сжатия: С потерями
Бит/(Пиксели*Кадры): 0.509
Размер потока: 968 Мбайт (95%)

Аудио
Идентификатор: 189 (0xBD)-128 (0x80)
Формат: AC-3
Формат/Информация: Audio Coding 3
Расширение режима: CM (complete main)
Режим смешивания: DVD-Video
Продолжительность: 25 м.
Вид битрейта: Постоянный
Битрейт: 192 Кбит/сек
Каналы: 2 канала
Расположение каналов: Front: L R
Частота: 48,0 КГц
Битовая глубина: 16 бит
Метод сжатия: С потерями
Размер потока: 35,3 Мбайт (3%)

Меню

Общее
Полное имя: C:\films\Суворов\VIDEO_TS\VTS_01_2.VOB
Формат: MPEG-PS
Размер файла: 795 Мбайт
Продолжительность: 18 м.
Режим общего битрейта: Переменный
Общий поток: 6085 Кбит/сек

Видео
Идентификатор: 224 (0xE0)
Формат: MPEG Video
Версия формата: Version 2
Профиль формата: Main@Main
Параметр BVOP формата: Да
Параметр матрицы формата: Выборочная
Параметр GOP формата: M=3, N=15
Продолжительность: 18 м.
Вид битрейта: Переменный
Битрейт: 5772 Кбит/сек
Максимальный битрейт: 6000 Кбит/сек
Ширина: 720 пикселей
Высота: 576 пикселей
Соотношение сторон: 4:3
Частота кадров: 25,000 кадров/сек
Стандарт вещания: PAL
Цветовое пространство: YUV
Субдискретизация насыщенности: 4:2:0
Битовая глубина: 8 бит
Тип развёртки: Чересстрочная
Порядок развёртки: Нижнее поле первое
Метод сжатия: С потерями
Бит/(Пиксели*Кадры): 0.557
Размер потока: 753 Мбайт (95%)

Аудио
Идентификатор: 189 (0xBD)-128 (0x80)
Формат: AC-3
Формат/Информация: Audio Coding 3
Расширение режима: CM (complete main)
Режим смешивания: DVD-Video
Продолжительность: 18 м.
Вид битрейта: Постоянный
Битрейт: 192 Кбит/сек
Каналы: 2 канала
Расположение каналов: Front: L R
Частота: 48,0 КГц
Битовая глубина: 16 бит
Метод сжатия: С потерями
Задержка видео: -624 мс.
Размер потока: 25,1 Мбайт (3%)

Меню

Общее
Полное имя: C:\films\Суворов\VIDEO_TS\VTS_02_0.BUP
Формат: DVD Video
Профиль формата: Program
Размер файла: 12,0 Кбайт
Продолжительность: 9 с. 840 мс.
Режим общего битрейта: Переменный
Общий поток: 9990 бит/сек

Видео
Идентификатор: 224 (0xE0)
Формат: MPEG Video
Версия формата: Version 2
Продолжительность: 9 с. 840 мс.
Вид битрейта: Переменный
Ширина: 720 пикселей
Высота: 576 пикселей
Соотношение сторон: 4:3
Частота кадров: 25,000 кадров/сек
Стандарт вещания: PAL
Метод сжатия: С потерями

Меню
Продолжительность: 9 с. 840 мс.
00:00:00.000: Chapter 1

Общее
Полное имя: C:\films\Суворов\VIDEO_TS\VTS_02_0.IFO
Формат: DVD Video
Профиль формата: Program
Размер файла: 12,0 Кбайт
Продолжительность: 9 с. 840 мс.
Режим общего битрейта: Переменный
Общий поток: 9990 бит/сек

Видео
Идентификатор: 224 (0xE0)
Формат: MPEG Video
Версия формата: Version 2
Продолжительность: 9 с. 840 мс.
Вид битрейта: Переменный
Ширина: 720 пикселей
Высота: 576 пикселей
Соотношение сторон: 4:3
Частота кадров: 25,000 кадров/сек
Стандарт вещания: PAL
Метод сжатия: С потерями

Меню
Продолжительность: 9 с. 840 мс.
00:00:00.000: Chapter 1

Общее
Полное имя: C:\films\Суворов\VIDEO_TS\VTS_02_1.VOB
Формат: MPEG-PS
Размер файла: 2,34 Мбайт
Продолжительность: 9 с. 840 мс.
Режим общего битрейта: Переменный
Общий поток: 1993 Кбит/сек

Видео
Идентификатор: 224 (0xE0)
Формат: MPEG Video
Версия формата: Version 2
Профиль формата: Main@Main
Параметр BVOP формата: Да
Параметр матрицы формата: Выборочная
Продолжительность: 9 с. 840 мс.
Вид битрейта: Переменный
Битрейт: 1953 Кбит/сек
Максимальный битрейт: 6000 Кбит/сек
Ширина: 720 пикселей
Высота: 576 пикселей
Соотношение сторон: 4:3
Частота кадров: 25,000 кадров/сек
Стандарт вещания: PAL
Цветовое пространство: YUV
Субдискретизация насыщенности: 4:2:0
Битовая глубина: 8 бит
Тип развёртки: Чересстрочная
Порядок развёртки: Нижнее поле первое
Метод сжатия: С потерями
Бит/(Пиксели*Кадры): 0.188
Размер потока: 2,29 Мбайт (98%)

Меню
Скриншоты:




Время раздачи: 24/7

Постеры

Соцсети

 

Статистика

Автор: master
Добавлен: 05 фев 2012, 23:37
Размер: 1.78 ГБ
Размер: 1 909 567 488 байт
Сидеров: 0
Личеров: 0
Скачали: 0
Здоровье: 0%
Скорость скачивания: 0 байт/сек
Скорость раздачи: 0 байт/сек
Последний сидер: 3 года 5 месяцев 15 дней 14 часов 13 минут 58 секунд назад
Последний личер: Нет
Приватный: Нет (DHT включён)
Скачать торрент
Скачать торрент
[ Размер 18.96 КБ / Просмотров 2 ]

Поделиться


Вернуться в История Руси, России