Видео


Сообщение

Видео Жуков: «Солдат не жалеть!» (2011) SATRip

Сообщение master » 05 фев 2012, 23:38

Жуков: «Солдат не жалеть!» (2011) SATRip
Название: Жуков: «Солдат не жалеть!»

Год выпуска: 2011
Жанр: Документальный

Описание:
Георгий Жуков – маршал Победы, главный герой Великой Отечественной войны. Он вошел в историю как гениальный военачальник и великий стратег. Однако, насколько велики, в действительности, его полководческие таланты? Соответствуют ли потери в спланированных им операциях цене Победы? Анализ рассекреченных документов, новый взгляд на исторические события свидетельствуют о том, что заслуги Жукова далеко небесспорны. По подсчетам, во время его командования погибло самое большое количество солдат за всю историю войн.

Релиз:

Продолжительность: 00:43:40

Видеокодек: Xvid
Битрейт видео: ~1498 Kbps
Размер кадра: 704x416
Качество видео: SATRip
Аудиокодек: MP3
Битрейт аудио: 128 Kbps

General
Complete name: F:\\Zhukov.Soldat.ne.zhaletj.2011.SATRip.avi
Format: AVI
Format/Info: Audio Video Interleave
File size: 511 MiB
Duration: 43mn 40s
Overall bit rate: 1 636 Kbps
Writing library: VirtualDub build 32706/release

Video
ID: 0
Format: MPEG-4 Visual
Format profile: Advanced Simple@L5
Format settings, BVOP: 2
Format settings, QPel: Yes
Format settings, GMC: No warppoints
Format settings, Matrix: Default (MPEG)
Codec ID: XVID
Codec ID/Hint: XviD
Duration: 43mn 40s
Bit rate: 1 498 Kbps
Width: 704 pixels
Height: 416 pixels
Display aspect ratio: 1.692
Frame rate: 25.000 fps
Color space: YUV
Chroma subsampling: 4:2:0
Bit depth: 8 bits
Scan type: Progressive
Compression mode: Lossy
Bits/(Pixel*Frame): 0.205
Stream size: 468 MiB (92%)
Writing library: XviD 1.2.1 (UTC 2008-12-04)

Audio
ID: 1
Format: MPEG Audio
Format version: Version 1
Format profile: Layer 3
Mode: Joint stereo
Mode extension: MS Stereo
Codec ID: 55
Codec ID/Hint: MP3
Duration: 43mn 40s
Bit rate mode: Constant
Bit rate: 128 Kbps
Channel(s): 2 channels
Sampling rate: 48.0 KHz
Compression mode: Lossy
Stream size: 40.0 MiB (8%)
Alignment: Split accross interleaves
Interleave, duration: 40 ms (1.00 video frame)
Interleave, preload duration: 500 ms
Скриншоты:



Время раздачи: Раздача ведется до появления первых 10 сидов.

Постеры

Соцсети

 

Вернуться в История Руси, России



Кто сейчас на конференции

Сейчас эту тему просматривают: CCBot и гости: 0