Видео


Сообщение

Видео Заполярье. Война на скалах (2011) SATRip

Сообщение master » 05 фев 2012, 23:39

Заполярье. Война на скалах (2011) SATRip
Название: Заполярье. Война на скалах

Режиссер / Телекомпания: Андрей Грачев, Алексей Рафаенко / ОАО "ТРЕ ВС РФ "Звезда"
Год выпуска: 2011
Жанр: Документальный

Описание:
28 июня 1941 года Финляндия объявила войну СССР. Тогда же германо-финские войска перешли государственную границу. Точнее, попытались перейти. Заполярье стало практически единственным местом, где советские войска дали врагу более чем достойный отпор. Кое-где агрессор вынужден был вернуться на исходные позиции, а где-то – так и не смог продвинуться ни на метр.
Фильм рассказывает о первых героических днях обороны, о местах былых сражений: сгоревших погранзаставах, ДОТах и выбитых в скалах окопах. Все это хорошо сохранилось в условиях вечной мерзлоты и находится на труднодоступной территории, где и сегодня – пограничная зона.

Продолжительность: 2 x ~ 00:38:00

Видеокодек: Xvid
Битрейт видео: ~1669Кбит/сек
Размер кадра: 720x432
Качество видео: SATRip
Аудиокодек: MP3
Битрейт аудио: 192 Кбит/с
Формат: AVI
Формат/Информация: Audio Video Interleave
Размер файла: 500 Мбайт
Продолжительность: 37 м.
Общий поток: 1868 Кбит/сек
Программа кодирования: VirtualDubMod 1.5.4.1 (build 2178/release)
Библиотека кодирования: VirtualDubMod build 2178/release

Видео
Идентификатор: 0
Формат: MPEG-4 Visual
Профиль формата: Advanced Simple@L5
Параметр BVOP формата: 1
Параметр QPel формата: Нет
Параметр GMC формата: Без точки перехода
Параметр матрицы формата: Выборочная
Идентификатор кодека: XVID
Идентификатор кодека/Подсказка: XviD
Продолжительность: 37 м.
Битрейт: 1669 Кбит/сек
Ширина: 720 пикс.
Высота: 432 пикс.
Соотношение сторон: 1,667
Частота кадров: 25,000 кадр/сек
Цветовое пространство: YUV
Подвыборка цветности: 4:2:0
Битовая глубина: 8 бит
Тип развёртки: Прогрессивная
Метод сжатия: С потерями
Бит/(Пиксели*Кадры): 0.215
Размер потока: 447 Мбайт (89%)
Библиотека кодирования: XviD 1.2.1 (UTC 2008-12-04)

Аудио
Идентификатор: 1
Формат: MPEG Audio
Версия формата: Version 1
Профиль формата: Layer 3
Режим: Joint stereo
Расширение режима: MS Stereo
Идентификатор кодека: 55
Идентификатор кодека/Подсказка: MP3
Продолжительность: 37 м.
Вид битрейта: Постоянный
Битрейт: 192 Кбит/сек
Канал(ы): 2 канала(ов)
Частота: 48,0 КГц
Метод сжатия: С потерями
Размер потока: 51,4 Мбайт (10%)
Выравнивание: Соединение по промежуткам
Продолжительность промежутка: 80мс. (2,00 видеокадров)
Время предзагрузки промежутка: 504 ms
Библиотека кодирования: LAME3.98r
Настройки программы: -m j -V 4 -q 2 -lowpass 18.6 -b 192

Zapoljare.Vojna.na.skalah.2.serija.iz.2.2011.SATRip.avi
Формат: AVI
Формат/Информация: Audio Video Interleave
Размер файла: 500 Мбайт
Продолжительность: 38 м.
Общий поток: 1803 Кбит/сек
Программа кодирования: VirtualDubMod 1.5.4.1 (build 2178/release)
Библиотека кодирования: VirtualDubMod build 2178/release

Видео
Идентификатор: 0
Формат: MPEG-4 Visual
Профиль формата: Advanced Simple@L5
Параметр BVOP формата: 1
Параметр QPel формата: Нет
Параметр GMC формата: Без точки перехода
Параметр матрицы формата: Выборочная
Идентификатор кодека: XVID
Идентификатор кодека/Подсказка: XviD
Продолжительность: 38 м.
Битрейт: 1604 Кбит/сек
Ширина: 720 пикс.
Высота: 432 пикс.
Соотношение сторон: 1,667
Частота кадров: 25,000 кадр/сек
Цветовое пространство: YUV
Подвыборка цветности: 4:2:0
Битовая глубина: 8 бит
Тип развёртки: Прогрессивная
Метод сжатия: С потерями
Бит/(Пиксели*Кадры): 0.206
Размер потока: 445 Мбайт (89%)
Библиотека кодирования: XviD 1.2.1 (UTC 2008-12-04)

Аудио
Идентификатор: 1
Формат: MPEG Audio
Версия формата: Version 1
Профиль формата: Layer 3
Режим: Joint stereo
Расширение режима: MS Stereo
Идентификатор кодека: 55
Идентификатор кодека/Подсказка: MP3
Продолжительность: 38 м.
Вид битрейта: Постоянный
Битрейт: 192 Кбит/сек
Канал(ы): 2 канала(ов)
Частота: 48,0 КГц
Метод сжатия: С потерями
Размер потока: 53,3 Мбайт (11%)
Выравнивание: Соединение по промежуткам
Продолжительность промежутка: 80мс. (2,00 видеокадров)
Время предзагрузки промежутка: 504 ms
Библиотека кодирования: LAME3.98r
Настройки программы: -m j -V 4 -q 2 -lowpass 18.6 -b 192
Скриншоты:


Время раздачи: 24/7-круглосуточно

Постеры

Соцсети

 

Вернуться в История Руси, России



Кто сейчас на конференции

Сейчас эту тему просматривают: CCBot и гости: 0