Фильм


Сообщение

Фильм Битва за Север / Фильм шестой. Секретная война в Арктике (2010) SATRip

Сообщение Nik » 02 сен 2012, 11:37

Битва за Север / Фильм шестой. Секретная война в Арктике (2010) SATRip

Название: Битва за Север

Телекомпания: «Адамово Яблоко»
Год выпуска: 2010
Жанр: Документальный
Режиссёр-монтажа: Александр Михайлов
Ведущий: Кирилл Набутов

Описание:
Север - сегодня один из самых - о, парадокс! - жарких регионов в мире. Передел Арктики и ее невероятных ресурсов волнует сегодня Канаду, США, Норвегию, Данию и, конечно, Россию. У нас на арктический пирог планы самые грандиозные, так ведь и бьемся за верхушку мира мы дольше других. Сейчас кажется, что Битва за Север только разгорается, но ведь она идет уже много веков. И самые интересные ее моменты - ХХ век - зрители увидят в новом документальном цикле НТВ "Битва за Север". Героические эпопеи Седова и Колчака, трагедия парохода "Челюскин", знаменитые трансполярные перелеты Чкалова и Громова, первая дрейфующая станция Папанина, рекордное строительство Беломорканала и ужасы Соловецкого лагеря, самая кровавая Битва за Север в ХХ веке - Великая Отечественная война, главный ядерный полигон страны - на Новой Земле и история самого мощного ядерного взрыва в истории человечества...

Дополнительно: SATRip со спутникового канала НТВ.

Продолжительность: 00:43:55

Видеокодек: Xvid
Битрейт видео: 1296 kbps avg
Размер кадра: 640x480 (1.33:1)
Качество видео: SATRip
Аудиокодек: MP3
Битрейт аудио: 128.00 kbps avg

General
Complete name: F:\Закачка фильмы\Сериал\Bitva_za_sever\Bitva.za.sever.(vypusk.06).2010.XviD.SATRip.RAM.avi
Format: AVI
Format/Info: Audio Video Interleave
File size: 450 MiB
Duration: 43mn 55s
Overall bit rate: 1 434 Kbps
Writing application: VirtualDubMod 1.5.10.2 (build 2540/release)
Writing library: VirtualDubMod build 2540/release

Video
ID: 0
Format: MPEG-4 Visual
Format profile: Advanced Simple@L5
Format settings, BVOP: 2
Format settings, QPel: No
Format settings, GMC: No warppoints
Format settings, Matrix: Default (MPEG)
Muxing mode: Packed bitstream
Codec ID: XVID
Codec ID/Hint: XviD
Duration: 43mn 55s
Bit rate: 1 296 Kbps
Width: 640 pixels
Height: 480 pixels
Display aspect ratio: 4:3
Frame rate: 25.000 fps
Color space: YUV
Chroma subsampling: 4:2:0
Bit depth: 8 bits
Scan type: Progressive
Compression mode: Lossy
Bits/(Pixel*Frame): 0.169
Stream size: 407 MiB (90%)
Writing library: XviD 1.2.1 (UTC 2008-12-04)

Audio
ID: 1
Format: MPEG Audio
Format version: Version 1
Format profile: Layer 3
Mode: Joint stereo
Mode extension: MS Stereo
Codec ID: 55
Codec ID/Hint: MP3
Duration: 43mn 55s
Bit rate mode: Constant
Bit rate: 128 Kbps
Channel(s): 2 channels
Sampling rate: 48.0 KHz
Compression mode: Lossy
Stream size: 40.2 MiB (9%)
Alignment: Aligned on interleaves
Interleave, duration: 40 ms (1.00 video frame)
Interleave, preload duration: 504 ms
Скриншоты:



Время раздачи: Раздача ведется до появления первых 10 сидов.

Постеры

Соцсети

 

Статистика

Автор: Nik
Добавлен: 02 сен 2012, 11:37
Размер: 450.39 МБ
Размер: 472 266 752 байт
Сидеров: 0
Личеров: 0
Скачали: 0
Здоровье: 0%
Скорость скачивания: 0 байт/сек
Скорость раздачи: 0 байт/сек
Последний сидер: Нет
Последний личер: Нет
Приватный: Нет (DHT включён)
Скачать торрент
Скачать торрент
[ Размер 18.38 КБ / Просмотров 2 ]

Поделиться


Вернуться в История Руси, России