Фильм


Сообщение

Фильм Вторые похороны Сталина (2011) SATRip

Сообщение Nik » 02 сен 2012, 11:39

Вторые похороны Сталина (2011) SATRip

Название: Вторые похороны Сталина

Режиссер: Денис Шулепов
Год выпуска: 2011
Жанр: Документальный
Текст читает: Сергей Чонишвили.

Описание:
6 марта 1953 года. "Страна рабочих и крестьян" утопает в слезах общего горя - день назад умер товарищ Сталин. Никто в огромной стране не знает, что будет дальше. Господствовавшая до этого система держалась на авторитете, казавшегося вечным, вождя. Его смерть вызвала растерянность и неопределенность. Руководителем похорон назначается Никита Сергеевич Хрущев, будущий преемник и идейный борец против сталинизма. Восемь лет Никита Сергеевич в прямом и переносном смысле хоронит своего предшественника. Этот фильм - о непростом отношении Хрущева к уже умершему Сталину. Об эпохе, когда, по выражению Анны Ахматовой, еще сажали, но уже не расстреливали. О том, как заслужить похороны у кремлевской стены.

Продолжительность: 00:44:05

Видеокодек: DivX
Битрейт видео: ~1652 Кбит/с
Размер кадра: 640x480
Качество видео: SATRip
Аудиокодек: MP3
Битрейт аудио: 128 Кбит/с

General
Complete name: F:\\Vtorie.pohorony.Stalina.2011.DivX.SATRip.avi
Format: AVI
Format/Info: Audio Video Interleave
File size: 564 MiB
Duration: 44mn 4s
Overall bit rate: 1 790 Kbps
Writing library: VirtualDub build 29808/release

Video
ID: 0
Format: MPEG-4 Visual
Format settings, BVOP: 1
Format settings, QPel: No
Format settings, GMC: No warppoints
Format settings, Matrix: Default (H.263)
Muxing mode: Packed bitstream
Codec ID: DX50
Codec ID/Hint: DivX 5
Duration: 44mn 4s
Bit rate: 1 652 Kbps
Width: 640 pixels
Height: 480 pixels
Display aspect ratio: 4:3
Frame rate: 25.000 fps
Color space: YUV
Chroma subsampling: 4:2:0
Bit depth: 8 bits
Scan type: Progressive
Compression mode: Lossy
Bits/(Pixel*Frame): 0.215
Stream size: 521 MiB (92%)
Writing library: DivX 6.8.5 (UTC 2009-08-20)

Audio
ID: 1
Format: MPEG Audio
Format version: Version 1
Format profile: Layer 3
Mode: Joint stereo
Mode extension: MS Stereo
Codec ID: 55
Codec ID/Hint: MP3
Duration: 44mn 4s
Bit rate mode: Constant
Bit rate: 128 Kbps
Channel(s): 2 channels
Sampling rate: 48.0 KHz
Compression mode: Lossy
Delay relative to video: 80ms
Stream size: 40.4 MiB (7%)
Alignment: Split accross interleaves
Interleave, duration: 40 ms (1.00 video frame)
Interleave, preload duration: 500 ms
Скриншоты:



Время раздачи: Раздача ведется до появления первых 10 сидов.

Постеры

Соцсети

 

Статистика

Автор: Nik
Добавлен: 02 сен 2012, 11:39
Размер: 564.26 МБ
Размер: 591 670 452 байт
Сидеров: 0
Личеров: 0
Скачали: 0
Здоровье: 0%
Скорость скачивания: 0 байт/сек
Скорость раздачи: 0 байт/сек
Последний сидер: Нет
Последний личер: Нет
Приватный: Нет (DHT включён)
Скачать торрент
Скачать торрент
[ Размер 11.73 КБ / Просмотров 2 ]

Поделиться


Вернуться в История Руси, России