Фильм


Сообщение

Фильм Монологи о Чернобыле (2011) DVD5

Сообщение Nik » 02 сен 2012, 11:39

Монологи о Чернобыле (2011) DVD5

Название: Монологи о Чернобыле

Режиссер / Телекомпания: Владимир Губарев / "Атомпромсервис"
Год выпуска: 2011
Жанр: Документальный

Описание:
Документальный фильм, посвященный двадцать пятой годовщине аварии на ЧАЭС.
Хроника. Размышления. Выводы.

Продолжительность: 01:49:17

Видеокодек: MPEG-2 PAL
Битрейт видео: ~5279.29 kb/s
Размер кадра: 720x576 WideScreen, 25 fps
Качество видео: DVD5
Аудиокодек: AC3 2.0
Битрейт аудио: 192 kbps
General
Complete name: I:\Video\Docum\Монологи о Чернобыле\VIDEO_TS\VTS_01_1.VOB
Format: MPEG-PS
File size: 1 024 MiB
Duration: 27mn 7s
Overall bit rate: 5 279 Kbps

Video
ID: 224 (0xE0)
Format: MPEG Video
Format version: Version 2
Format profile: Main@Main
Format settings, BVOP: Yes
Format settings, Matrix: Default
Format settings, GOP: M=3, N=12
Duration: 27mn 7s
Bit rate mode: Constant
Bit rate: 5 000 Kbps
Width: 720 pixels
Height: 576 pixels
Display aspect ratio: 16:9
Frame rate: 25.000 fps
Standard: PAL
Color space: YUV
Chroma subsampling: 4:2:0
Bit depth: 8 bits
Scan type: Interlaced
Scan order: Bottom Field First
Bits/(Pixel*Frame): 0.482
Stream size: 966 MiB (94%)

Audio
ID: 128 (0x80)
Format: AC-3
Format/Info: Audio Coding 3
Mode extension: CM (complete main)
Duration: 27mn 7s
Bit rate mode: Constant
Bit rate: 192 Kbps
Channel(s): 2 channels
Channel positions: Front: L R
Sampling rate: 48.0 KHz
Bit depth: 16 bits
Video delay: -80ms
Stream size: 37.2 MiB (4%)

Menu
Скриншоты:


Время раздачи: С 20:00 до 8:00

Постеры

Соцсети

 

Вернуться в История Руси, России



Кто сейчас на конференции

Сейчас эту тему просматривают: CCBot и гости: 0