Фильм


Сообщение

Фильм Засекреченная любовь. Русская красавица (2006) SATRip

Сообщение Nik » 02 сен 2012, 11:39

Засекреченная любовь. Русская красавица (2006) SATRip

Название: Засекреченная любовь. Русская красавица

Режиссер / Телекомпания: Алексей Панков
Год выпуска: 2006
Жанр: Документальный

Описание:
"Засекреченная любовь" расскажет об одной из самых таинственных операций советских спецслужб середины 70-х и романе контрразведчицы и высокопоставленного чиновника НАТО. По мотивам этой истории в 1986 году был снят художественный фильм "Досье человека в "Мерседесе".

Участники: Исследователи

Продолжительность: 00:40:57

Видеокодек: Xvid
Битрейт видео: ~1498 Кбит/сек
Размер кадра: 704х432
Качество видео: SATRip
Аудиокодек: MP32 ch.
Битрейт аудио: 128 Кбит/сек
Общее
Полное имя: D:\СЕРИАЛЫ И ФИЛЬМЫ\Zasekrechennaja.ljubov.avi
Формат: AVI
Формат/Информация: Audio Video Interleave
Размер файла: 479 Мбайт
Продолжительность: 40 м.
Общий поток: 1636 Кбит/сек
Библиотека кодирования: VirtualDub build 32842/release

Видео
Идентификатор: 0
Формат: MPEG-4 Visual
Профиль формата: Advanced Simple@L5
Параметр BVOP формата: 2
Параметр QPel формата: Нет
Параметр GMC формата: Без точки перехода
Параметр матрицы формата: Default (H.263)
Режим смешивания: Сжатый битовый поток
Идентификатор кодека: XVID
Идентификатор кодека/Подсказка: XviD
Продолжительность: 40 м.
Битрейт: 1498 Кбит/сек
Ширина: 704 пикс.
Высота: 432 пикс.
Соотношение сторон: 1,630
Частота кадров: 25,000 кадр/сек
Цветовое пространство: YUV
Подвыборка цветности: 4:2:0
Битовая глубина: 8 бит
Тип развёртки: Прогрессивная
Метод сжатия: С потерями
Бит/(Пиксели*Кадры): 0.197
Размер потока: 439 Мбайт (92%)
Библиотека кодирования: XviD 1.2.1 (UTC 2008-12-04)

Аудио
Идентификатор: 1
Формат: MPEG Audio
Версия формата: Version 1
Профиль формата: Layer 3
Режим: Joint stereo
Расширение режима: MS Stereo
Идентификатор кодека: 55
Идентификатор кодека/Подсказка: MP3
Продолжительность: 40 м.
Вид битрейта: Постоянный
Битрейт: 128 Кбит/сек
Канал(ы): 2 канала(ов)
Частота: 48,0 КГц
Метод сжатия: С потерями
Размер потока: 37,5 Мбайт (8%)
Выравнивание: Разделение по промежуткам
Продолжительность промежутка: 40мс. (1,00 видеокадр)
Время предзагрузки промежутка: 500 ms
Скриншоты:


Время раздачи: С 8.00 до 0.00

Постеры

Соцсети

 

Статистика

Автор: Nik
Добавлен: 02 сен 2012, 11:39
Размер: 479.2 МБ
Размер: 502 473 864 байт
Сидеров: 0
Личеров: 15
Скачали: 0
Здоровье: ???%
Скорость скачивания: 0 байт/сек
Скорость раздачи: 0 байт/сек
Последний сидер: Нет
Последний личер: 1 год 9 месяцев 8 дней 7 часов 43 минуты 35 секунд назад
Приватный: Нет (DHT включён)
Скачать торрент
Скачать торрент
[ Размер 19.45 КБ / Просмотров 6 ]

Поделиться


Вернуться в История Руси, России