Фильм


Сообщение

Фильм Кронштадтский мятеж - Кто победил? (2011) SATRip

Сообщение Nik » 02 сен 2012, 11:41

Кронштадтский мятеж - Кто победил? (2011) SATRip

Название: Кронштадтский мятеж - Кто победил?

Режиссер: Алексей Денисов
Год выпуска: 2011
Жанр: Документальный

Описание:
В начале марта 1921 года в советских газетах было опубликовано срочное сообщение. В нем говорилось, что бывший царский генерал Козловский поднял в Кронштадте белогвардейский мятеж. В дальнейшем информация о мятеже подавалась крайне скупо. Сообщалось, что в Кронштадте якобы расстреляно 150 большевиков. 8 марта 1921 года в Москве открылся Х съезд партии. Выступая перед его делегатами, Ленин неожиданно заявил, что восстание в Кронштадте "опаснее для большевиков, чем Деникин, Юденич и Колчак вместе взятые". На подавление мятежа отправились 390 делегатов и гостей съезда. В Москве, Петрограде и других городах были мобилизованы около трех тысяч коммунистов, которых также бросили под Кронштадт…

Продолжительность: 00:44:01

Видеокодек: Xvid
Битрейт видео: ~1453 Кбит/с
Размер кадра: 720x544
Качество видео: SATRip
Аудиокодек: MP3
Битрейт аудио: 128 Кбит/с

General
Complete name: F:\\Kronshtadtskij.mjatezh.kto.pobedil.2011.XviD.SATRip.bySat.avi
Format: AVI
Format/Info: Audio Video Interleave
File size: 501 MiB
Duration: 44mn 1s
Overall bit rate: 1 591 Kbps
Movie name: Кронштадтский мятеж - Кто победил_bySat
Director: Scorpman
Writing application: VirtualDubMod 1.5.10.3 | www.virtualdub-fr.org || (build 2550/release) VirtualDubMod build 2550/release
Copyright: Sat

Video
ID: 0
Format: MPEG-4 Visual
Format profile: Advanced Simple@L5
Format settings, BVOP: 1
Format settings, QPel: No
Format settings, GMC: No warppoints
Format settings, Matrix: Default (H.263)
Codec ID: XVID
Codec ID/Hint: XviD
Duration: 44mn 1s
Bit rate: 1 453 Kbps
Width: 720 pixels
Height: 544 pixels
Display aspect ratio: 4:3
Frame rate: 25.000 fps
Color space: YUV
Chroma subsampling: 4:2:0
Bit depth: 8 bits
Scan type: Progressive
Compression mode: Lossy
Bits/(Pixel*Frame): 0.148
Stream size: 458 MiB (91%)
Writing library: XviD 61

Audio
ID: 1
Format: MPEG Audio
Format version: Version 1
Format profile: Layer 3
Codec ID: 55
Codec ID/Hint: MP3
Duration: 44mn 1s
Bit rate mode: Constant
Bit rate: 128 Kbps
Channel(s): 2 channels
Sampling rate: 48.0 KHz
Compression mode: Lossy
Stream size: 40.3 MiB (8%)
Alignment: Aligned on interleaves
Interleave, duration: 40 ms (1.00 video frame)
Interleave, preload duration: 504 ms
Writing library: LAME3.98r
Encoding settings: -m s -V 4 -q 2 -lowpass 17 -b 128
Language: un
Скриншоты:



Время раздачи: Раздача ведется до появления первых 10 сидов.

Постеры

Соцсети

 

Статистика

Автор: Nik
Добавлен: 02 сен 2012, 11:41
Размер: 500.93 МБ
Размер: 525 258 422 байт
Сидеров: 0
Личеров: 0
Скачали: 0
Здоровье: 0%
Скорость скачивания: 0 байт/сек
Скорость раздачи: 0 байт/сек
Последний сидер: Нет
Последний личер: Нет
Приватный: Нет (DHT включён)
Скачать торрент
Скачать торрент
[ Размер 20.31 КБ / Просмотров 2 ]

Поделиться


Вернуться в История Руси, России