Фильм


Сообщение

Фильм Города - Герои. Сталинград (2010) TVRip

Сообщение Nik » 02 сен 2012, 11:46

Города - Герои. Сталинград (2010) TVRip

Название: Города - Герои. Сталинград

Страна: Белоруссия
Производство: "Общенациональное телевидение".
Режиссеры: Илья Баранов, Александра Горькая
Год выпуска: 2010
Жанр: Документальный
Продолжительность: 0:44:15
Ведущие проекта: Владимир Гостюхин, Игорь Сигов

Описание:
Звание город-герой — высшая степень отличия СССР. Присвоено 12 городам в СССР после Великой Отечественной войны 1941—1945 гг. Кроме того, Брестской крепости присвоено звание крепость-герой. В настоящее время четыре из них находятся на территории Украины, Минск и Брестская крепость-герой — на территории Белоруссии, остальные — в России.
Данный фильм посвящен городу - герою Сталинград.

Рип с телеканала "Беларусь ТВ".
Качество видео: TVRip
Формат: AVI
Видеокодек: H.264
Битрейт видео: ~1272Kbps
Размер кадра: 700x428
Аудиокодек: MP3
Битрейт аудио: 224Kbps

F:\\Города герои\Сталинград.avi
General
Complete name : F:\\Города герои\Сталинград.avi
Format : AVI
Format/Info : Audio Video Interleave
File size : 422 MiB
Duration : 44mn 15s
Overall bit rate : 1 334 Kbps
Writing library : VirtualDub build 32706/release
Video #0
ID : 0
Format : AVC
Format/Info : Advanced Video Codec
Format profile :
Format settings, CABAC : Yes
Format settings, ReFrames : 5 frames
Codec ID : H264
Duration : 44mn 15s
Bit rate : 1 100 Kbps
Width : 700 pixels
Height : 428 pixels
Display aspect ratio : 1.636
Frame rate : 25.000 fps
Color space : YUV
Chroma subsampling : 4:2:0
Bit depth : 8 bits
Scan type : Progressive
Bits/(Pixel*Frame) : 0.147
Stream size : 348 MiB (82%)
Writing library : x264 core 96 r1613kMod 81e75e9
Encoding settings : cabac=1 / ref=5 / deblock=1:0:0 / analyse=0x3:0x113 / me=umh / subme=9 / psy=1 / psy_rd=1.00:0.00 / mixed_ref=1 / me_range=16 / chroma_me=1 / trellis=1 / 8x8dct=1 / cqm=0 / deadzone=21,11 / fast_pskip=1 / chroma_qp_offset=-2 / threads=5 / sliced_threads=1 / slices=5 / nr=0 / decimate=1 / interlaced=0 / constrained_intra=0 / bframes=3 / b_pyramid=2 / b_adapt=1 / b_bias=0 / direct=1 / weightb=1 / weightp=2 / keyint=250 / keyint_min=25 / scenecut=40 / intra_refresh=0 / rc=2pass / mbtree=0 / bitrate=1100 / ratetol=1.0 / qcomp=0.60 / qpmin=10 / qpmax=51 / qpstep=4 / cplxblur=20.0 / qblur=0.5 / ip_ratio=1.40 / pb_ratio=1.30 / aq=1:1.00
Audio #1
ID : 1
Format : MPEG Audio
Format version : Version 1
Format profile : Layer 3
Mode : Joint stereo
Codec ID : 55
Codec ID/Hint : MP3
Duration : 44mn 15s
Bit rate mode : Constant
Bit rate : 224 Kbps
Channel(s) : 2 channels
Sampling rate : 48.0 KHz
Stream size : 70.9 MiB (17%)
Alignment : Split accross interleaves
Interleave, duration : 40 ms (1.00 video frame)
Interleave, preload duration : 500 ms
Скриншоты:



Время раздачи: Раздача ведется до появления первых 10 сидов.

Постеры

Соцсети

 

Вернуться в История Руси, России



Кто сейчас на конференции

Сейчас эту тему просматривают: CCBot и гости: 0