Видео


Сообщение

Видео Специалист | СЕН часть2. Тестирование на проникновение хакера и анализ безопасности [2012] PCRec

Сообщение Таточка » 15 дек 2012, 13:15

Автор: Клевогин Сергей Павлович
Название: СЕН2. Тестирование на проникновение хакера и анализ безопасности
Год выпуска: 2012
Жанр: Безопасность
Качество видео: PCRec
Продолжительность: 15:24:23
Видеокодек: WMV
Битрейт видео: ~725kbps
Размер кадра: 1280x1024
Аудиокодек: WMA
Битрейт аудио: 176kbps

Описание:
Цель курса – получить знания и навыки, необходимые для успешного выявления и устранения проблем безопасности в смешанных компьютерных сетях. Курс посвящен методикам проведения тестирования на проникновение в контексте углубленного анализа безопасности компьютерных сетей.

В курсе представлены подробные материалы по работе компьютерных систем и сетей. Описаны последовательности многочисленных тестов на проникновение и предложены рекомендации по укреплению защищенности компьютерных систем и сетей.
Хахакинг видео

Целевая аудитория данного курса:
    Cистемные администраторы безопасности, инженеры и аудиторы, работающие или предполагающие работать на средних и крупных предприятиятиях, вплоть до организаций корпоративного масштаба.
    К основной целевой аудитории данного курса также относятся квалифицированные специалисты в области информационных технологий, включая администраторов предприятий, желающих улучшить свои знания и навыки в области безопасности компьютерных сетей.
    Кроме того, к дополнительной целевой аудитории также относятся квалифицированные специалисты, желающие понять суть хакинга компьютерных систем и мер по защите от вторжений.
Модуль 1. Анализ безопасности
    Необходимость анализа безопасности
    Расширенный поиск в Google
    Анализ пакетов TCP/IP
    Расширенные техники сниффинга
    Анализ уязвимостей с Nessus
    Расширенное тестирование беспроводных сетей
    Проектирование DMZ
    Анализ Snort
    Анализ журналов
    Углубленное изучение эксплойтов и инструментов
Модуль 2. Концепции тестирования на проникновение
    Методологии тестирования на проникновение
    Юридические соглашения
    Правила тестирования
    Планирование тестирования
    Контрольный список тестирования на проникновение
Модуль 3. Виды тестирования на проникновение
    Сбор информации
    Анализ уязвимостей
    Внешнее тестирование
    Тестирование внутренней сети
    Тестирование маршрутизаторов и коммутаторов
    Тестирование обхода фаерволлов
    Тестирование уклонения от IDS
    Тестирование беспроводных сетей
    Тестирование на предмет DoS
    Тестирование возможности взлома паролей
    Тестирование посредством социальной инженерии
    Тестирование возможной кражи ноутбуков, КПК и телефонов
    Тестирование приложений
    Тестирование физической безопасности
    Тестирование баз данных
    Тестирование VoIP
    Тестирование VPN
    War Dialing
    Обнаружение вирусов и троянов
    Тестирование управления журналами
    Проверка целостности файлов
    Тестирование Blue Tooth и ручных устройства
    Тестирование телекоммуникаций
    Тестирование безопасности E-mail
    Тестирование исправлений безопасности
    Тестирование возможности утечки данных
Модуль 4. Отчеты и документация
    Результаты тестирования и заключение
    Отчеты и документация тестирования
    Аналитический отчет по тестированию
    Действия после тестирования
    Этика лицензированного тестера
    Стандарты и соответствие
Код:
Код: Выделить всё
Общее
Полное имя                               : CEH2.EtchnicalHack(00h00m00s-05h08m07s).wmv
Формат                                   : Windows Media
Размер файла                             : 1,67 Гбайт
Продолжительность                        : 5 ч. 8 м.
Режим общего битрейта                    : Переменный
Общий поток                              : 777 Кбит/сек
Максимальный общий битрейт               : 6997 Кбит/сек
Название фильма/Ещё                      : Unknown
Трек/Положение                           : 1
Дата кодирования                         : UTC 2012-08-11 14:31:01.592
WM/OriginalBroadcastDateTime             : Unknown
WM/TVNetworkAffiliation                  : Unknown
MediaFoundationVersion                   : 2.112

Видео
Идентификатор                            : 2
Формат                                   : VC-1
Профиль формата                          : MP@HL
Идентификатор кодека                     : WMV3
Идентификатор кодека/Информация          : Windows Media Video 9
Идентификатор кодека/Подсказка           : WMV3
Описание кодека                          : Windows Media Video 9
Вид битрейта                             : Переменный
Битрейт                                  : 725 Кбит/сек
Ширина                                   : 1280 пикселей
Высота                                   : 1024 пикселя
Соотношение сторон                       : 5:4
Режим частоты кадров                     : Переменный
Номинальная частота кадров               : 25,000 кадров/сек
Битовая глубина                          : 8 бит
Тип развёртки                            : Прогрессивная
Метод сжатия                             : С потерями

Аудио
Идентификатор                            : 1
Формат                                   : WMA
Версия формата                           : Version 2
Идентификатор кодека                     : 161
Идентификатор кодека/Информация          : Windows Media Audio
Описание кодека                          : Windows Media Audio 9.2 - VBR Quality 98, 44 kHz, stereo 1-pass VBR
Продолжительность                        : 5 ч. 8 м.
Вид битрейта                             : Переменный
Битрейт                                  : 138 Кбит/сек
Каналы                                   : 2 канала
Частота                                  : 44,1 КГц
Битовая глубина                          : 16 бит
Размер потока                            : 303 Мбайт (18%)

Общее
Полное имя                               : CEH2.EtchnicalHack(05h08m07s-10h16m15s).wmv
Формат                                   : Windows Media
Размер файла                             : 1,29 Гбайт
Продолжительность                        : 5 ч. 8 м.
Режим общего битрейта                    : Переменный
Общий поток                              : 600 Кбит/сек
Максимальный общий битрейт               : 6997 Кбит/сек
Название фильма/Ещё                      : Unknown
Трек/Положение                           : 1
Дата кодирования                         : UTC 2012-08-11 14:31:01.592
WM/OriginalBroadcastDateTime             : Unknown
WM/TVNetworkAffiliation                  : Unknown
MediaFoundationVersion                   : 2.112

Видео
Идентификатор                            : 2
Формат                                   : VC-1
Профиль формата                          : MP@HL
Идентификатор кодека                     : WMV3
Идентификатор кодека/Информация          : Windows Media Video 9
Идентификатор кодека/Подсказка           : WMV3
Описание кодека                          : Windows Media Video 9
Вид битрейта                             : Переменный
Битрейт                                  : 725 Кбит/сек
Ширина                                   : 1280 пикселей
Высота                                   : 1024 пикселя
Соотношение сторон                       : 5:4
Режим частоты кадров                     : Переменный
Номинальная частота кадров               : 25,000 кадров/сек
Битовая глубина                          : 8 бит
Тип развёртки                            : Прогрессивная
Метод сжатия                             : С потерями

Аудио
Идентификатор                            : 1
Формат                                   : WMA
Версия формата                           : Version 2
Идентификатор кодека                     : 161
Идентификатор кодека/Информация          : Windows Media Audio
Описание кодека                          : Windows Media Audio 9.2 - VBR Quality 98, 44 kHz, stereo 1-pass VBR
Продолжительность                        : 5 ч. 8 м.
Вид битрейта                             : Переменный
Битрейт                                  : 138 Кбит/сек
Каналы                                   : 2 канала
Частота                                  : 44,1 КГц
Битовая глубина                          : 16 бит
Размер потока                            : 303 Мбайт (23%)

Общее
Полное имя                               : CEH2.EtchnicalHack(10h16m15s-15h24m23s).wmv
Формат                                   : Windows Media
Размер файла                             : 1,59 Гбайт
Продолжительность                        : 5 ч. 8 м.
Режим общего битрейта                    : Переменный
Общий поток                              : 739 Кбит/сек
Максимальный общий битрейт               : 6997 Кбит/сек
Название фильма/Ещё                      : Unknown
Трек/Положение                           : 1
Дата кодирования                         : UTC 2012-08-11 14:31:01.592
WM/OriginalBroadcastDateTime             : Unknown
WM/TVNetworkAffiliation                  : Unknown
MediaFoundationVersion                   : 2.112

Видео
Идентификатор                            : 2
Формат                                   : VC-1
Профиль формата                          : MP@HL
Идентификатор кодека                     : WMV3
Идентификатор кодека/Информация          : Windows Media Video 9
Идентификатор кодека/Подсказка           : WMV3
Описание кодека                          : Windows Media Video 9
Продолжительность                        : 5 ч. 8 м.
Вид битрейта                             : Переменный
Битрейт                                  : 725 Кбит/сек
Ширина                                   : 1280 пикселей
Высота                                   : 1024 пикселя
Соотношение сторон                       : 5:4
Частота кадров                           : 25,000 кадров/сек
Битовая глубина                          : 8 бит
Тип развёртки                            : Прогрессивная
Метод сжатия                             : С потерями
Бит/(Пиксели*Кадры)                      : 0.022
Размер потока                            : 1,56 Гбайт (98%)

Аудио
Идентификатор                            : 1
Формат                                   : WMA
Версия формата                           : Version 2
Идентификатор кодека                     : 161
Идентификатор кодека/Информация          : Windows Media Audio
Описание кодека                          : Windows Media Audio 9.2 - VBR Quality 98, 44 kHz, stereo 1-pass VBR
Продолжительность                        : 5 ч. 8 м.
Вид битрейта                             : Переменный
Битрейт                                  : 138 Кбит/сек
Каналы                                   : 2 канала
Частота                                  : 44,1 КГц
Битовая глубина                          : 16 бит
Размер потока                            : 303 Мбайт (19%)
Скриншоты:

Постеры

Соцсети

 

Статистика

Автор: Таточка
Добавлен: 15 дек 2012, 13:15
Размер: 4.55 ГБ
Размер: 4 889 769 324 байт
Сидеров: 752
Личеров: 34
Скачали: 201
Здоровье: 100%
Раздающих: 100%
Изменил: Таточка (15 дек 2012, 13:17)
Скорость скачивания: 0 байт/сек
Скорость раздачи: 0 байт/сек
Последний сидер: 6 часов 37 минут 9 секунд назад
Последний личер: 6 дней 34 минуты 53 секунды назад
Приватный: Нет (DHT включён)
Сеть и безопасность Скачать торрент
Скачать торрент
[ Размер 12.68 КБ / Просмотров 210 ]

Поделиться


  • Похожие торренты
    Ответы
    Просмотры
    Последнее сообщение

Вернуться в Сеть и безопасность